<?xml version="1.0" standalone="no"?>
<!DOCTYPE svg PUBLIC "-//W3C//DTD SVG 1.1//EN" "http://www.w3.org/Graphics/SVG/1.1/DTD/svg11.dtd">
<svg xmlns="http://www.w3.org/2000/svg">
<metadata>Generated by Fontastic.me</metadata>
<defs>
<font id="okticon" horiz-adv-x="512">
<font-face font-family="okticon" units-per-em="512" ascent="480" descent="-32"/>
<missing-glyph horiz-adv-x="512" />

<glyph glyph-name="okticon-000-actionactivate" unicode="&#57344;" d="M512 170l-35 35-135-138-67 71-35-36 99-102z"/>
<glyph glyph-name="okticon-000-actionadd" unicode="&#57345;" d="M416 250l-58 0 0-96-96 0 0-58 96 0 0-96 58 0 0 96 96 0 0 58-96 0z"/>
<glyph glyph-name="okticon-000-actionassign" unicode="&#57346;" d="M432 256c-45 0-80-35-80-80 0-6 0-10 0-16l-96-96 0-64 64 0 0 32 32 0 0 32 32 0 0 32 32 0c3 0 10 0 16 0 45 0 80 35 80 80 0 45-35 80-80 80z m32-64c-10 0-16 6-16 16 0 10 6 16 16 16 10 0 16-6 16-16 0-10-6-16-16-16z"/>
<glyph glyph-name="okticon-000-actiondeprovision" unicode="&#57347;" d="M512 115c0 32-13 58-32 80-3 3-6 7-13 7-3 0-9-4-13-7-6-6-6-19 0-25 16-16 23-36 23-55 0-19-10-41-23-54-16-16-35-23-54-23-19 0-42 10-54 23-16 16-23 35-23 54 0 19 10 42 23 55 6 6 6 19 0 25-4 3-7 7-13 7-3 0-10-4-13-7-22-22-32-51-32-80 0-29 13-57 32-80 22-22 48-32 80-32 32 0 58 13 80 32 19 19 32 48 32 80z m-112 13c-10 0-16 10-16 19l0 90c0 9 6 19 16 19 10 0 16-10 16-19l0-90c0-9-6-19-16-19z"/>
<glyph glyph-name="okticon-000-actionedit" unicode="&#57348;" d="M512 188l-153-154-34 34 153 154z m-205-137l-19-51 51 16z"/>
<glyph glyph-name="okticon-000-actionimport" unicode="&#57349;" d="M96 0l128 96-128 96 0-64-96 0 0-64 96 0z"/>
<glyph glyph-name="okticon-000-actionoverride" unicode="&#57350;" d="M512 80l-77 38 77 42-19 32-80-42 0 90-42 0 0-90-80 42-19-32 77-42-77-38 19-35 80 41 0-86 42 0 0 86 80-41z"/>
<glyph glyph-name="okticon-000-actionpush" unicode="&#57351;" d="M384 0l128 96-128 96 0-64-96 0 0-64 96 0z"/>
<glyph glyph-name="okticon-000-actionrefresh" unicode="&#57352;" d="M403 202c-67 0-121-55-121-122 0-29 9-58 28-80l36 32c-13 13-20 32-20 48 0 42 32 74 74 74 16 0 29-7 42-13l-26-29 96 0 0 96-32-32c-22 16-48 26-77 26z"/>
<glyph glyph-name="okticon-000-actionunassign" unicode="&#57354;" d="M262 150l250 0 0-57-250 0z"/>
<glyph glyph-name="okticon-000-actionupload" unicode="&#57355;" d="M384 128l0-96 64 0 0 96 64 0-96 128-96-128z"/>
<glyph glyph-name="okticon-001-user" unicode="&#57356;" d="M480 32l-16 74c0 22-13 22-29 28 0 0-102 52-109 58-3 6-6 6-6 6 0 0 0 0 0 4-6 6-10 19-10 19 0 0 0 0 0 3l0 16c0 3 4 3 4 3 3 10 3 26 6 29 3 3 6 6 13 22 6 20 9 45 3 45 0 0-3 0-6-3 0 6 3 22 3 35 0 16 0 55-10 67-3 13-13 20-22 29-3 3-10 7-16 10-7 3-16 3-29 3-16 0-35-3-45-3-16-3-29-16-35-32-10-13-13-58-10-71 0-6 4-19 7-25 0-3 0-3 0-7 0 0 0 0-3 0-7 0 0-25 3-44 6-20 9-20 13-23 3-3 3-19 6-25 0 0 3-4 3-4l0-12 3-7c0 0 0 3-3 3 0-16-3-22-3-32 0 0 0 0-3 0-3 0-3-3-7-6-3-6-108-61-108-61-16-3-29-3-29-25l-13-74z"/>
<glyph glyph-name="okticon-002-user-add" unicode="&#57357;" d="M208 208l96 0 0 10c-6 3-10 6-10 6-3 6-6 6-6 6-3 0-3 0-3 4-3 6-7 19-7 19 0 3-3-7-3 3l0 16c0 3 3 3 3 3 7 10 7 26 10 29 3 3 6 6 13 22 6 20 9 45 3 45 0 0-3 0-6-3 0 6 3 22 3 35 0 16 0 55-10 67-3 13-13 20-22 29-3 3-10 7-16 10-13 6-58 3-74 0-16-3-29-16-35-32-10-13-13-58-10-74 0-6 4-19 7-25 0-4 0-4 0-7 0 0 0 0-3 0-7 0 0-29 3-45 6-19 9-19 13-22 3-3 3-19 6-26 0 0 3-3 3-3l0-13 3-6c0 3-3 3-3 0 0-10-3-16-3-26-3 4-3 0-6-3-4-6-109-61-109-61-19-6-32-6-32-28l-13-74 208 0z"/>
<glyph glyph-name="okticon-003-user-remove" unicode="&#57358;" d="M272 70l35 36-70 70 35 35 22 13c-3 6-6 6-6 6 0 0 0 0 0 4-6 6-10 19-10 19 0 0 0 0 0 3l0 16c0 3 4 3 4 3 3 10 3 26 6 29 3 3 6 6 13 22 6 20 9 45 3 45 0 0-3 0-6-3 0 6 3 22 3 35 0 16 0 55-10 67-3 13-13 20-22 29-3 3-10 7-16 10-7 3-16 3-29 3-16 0-35-3-45-3-16-3-29-16-35-32-10-13-13-58-10-71 0-6 4-19 7-25 0-3 0-3 0-7 0 0 0 0-3 0-7 0 0-28 3-44 6-20 9-20 13-23 3-3 3-19 6-25 0 0 3-4 3-4l0-12 3-7c0 0 0 3-3 3 0-16-3-22-3-32 0 0 0 0-3 0-3 0-3-3-7-6-3-6-108-61-108-61-16-3-29-3-29-25l-13-74 269 0z"/>
<glyph glyph-name="okticon-004-user-activate" unicode="&#57359;" d="M205 67l-35 35 35 36 70 70 35-35 36-35 41 41c-35 13-89 42-93 45-3 6-6 6-6 6 0 0 0 0 0 4-6 6-10 19-10 19 0 0 0 0 0 3l0 16c0 3 4 3 4 3 3 10 3 26 6 29 3 3 6 6 13 22 6 20 9 45 3 45 0 0-3 0-6-3 0 6 3 22 3 35 0 16 0 55-10 67-3 13-13 20-22 29-3 3-10 7-16 10-7 3-16 3-29 3-16 0-35-3-45-3-16-3-29-16-35-32-10-13-13-58-10-71 0-6 4-19 7-25 0-3 0-3 0-7 0 0 0 0-3 0-7 0 0-28 3-44 6-20 9-20 13-23 3-3 3-19 6-25 0 0 3-4 3-4l0-12 3-7c0 0 0 3-3 3 0-16-3-22-3-32 0 0 0 0-3 0-3 0-3-3-7-6-3-6-108-61-108-61-16-3-29-3-29-25l-13-74 211 0z"/>
<glyph glyph-name="okticon-005-user-import" unicode="&#57360;" d="M202 381c0-3 0-3 0-7 0 0 0 0-4 0-6 0 0-28 4-44 6-20 9-20 12-23 4-3 4-19 7-25 0 0 3-4 3-4l0-12 3-7c0 0 0 3-3 3 3-16 0-22 0-32 0 0 0 0-3 0-3 0-3-3-7-6-3 0-28-16-44-26l83-64 51-38-42-32 250 0-16 74c0 22-13 22-29 28 0 0-102 52-109 58-3 6-6 6-6 6 0 0 0 0 0 4-3 6-6 19-6 19 0 0 0 0 0 3l0 16c0 3 3 3 3 3 6 7 6 23 6 26 3 3 7 6 13 22 6 19 10 45 3 45 0 0-3 0-6-3 0 6 3 22 3 35 0 16 0 54-10 67-6 10-16 19-25 26-7 3-13 6-16 9-7 10-16 10-29 10-16 0-35-3-45-3-16-3-29-16-35-32-10-13-13-58-10-71 0-9 4-19 4-25z"/>
<glyph glyph-name="okticon-006-user-profile-push" unicode="&#57361;" d="M240 176l96 0 0 19c0 0-38 23-42 29-3 6-6 6-6 6 0 0 0 0 0 4-6 6-10 19-10 19 0 0 0 0 0 3l0 16c0 3 4 3 4 3 3 10 3 26 6 29 3 3 6 6 13 22 6 20 9 45 3 45 0 0-3 0-6-3 0 6 3 22 3 35 0 16 0 55-10 67-3 13-13 20-22 29-3 3-10 7-16 10-7 3-16 3-29 3-16 0-35-3-45-3-16-3-29-16-35-32-10-13-13-58-10-71 0-6 4-19 7-25 0-3 0-3 0-7 0 0 0 0-3 0-7 0 0-28 3-44 6-20 9-20 13-23 3-3 3-19 6-25 0 0 3-4 3-4l0-12 3-7c0 0 0 3-3 3 0-16-3-22-3-32 0 0 0 0-3 0-3 0-3-3-7-6-3-6-108-61-108-61-16-3-29-3-29-25l-13-74 240 0z"/>
<glyph glyph-name="okticon-007-user-admin-add" unicode="&#57362;" d="M218 189l-13 19-13-16-29 35c0 0 0 0-3 0-3 3-3 0-6-3-4-6-36-26-36-26l-76-35c-16-6-29-3-29-25l-13-74 192 0 26 83z m-77 192c0-3 0-3 0-7 0 0 0 0-3 0-7 0 0-28 3-44 6-20 9-20 13-23 6-6 6-22 9-29 0 0 3-3 3-3l0-19c0 0 36-26 55-26 29 0 57 26 57 26l0 16c0 3 4 3 4 3 6 10 6 26 9 29 3 3 7 6 13 22 6 20 10 45 3 45 0 0-3 0-6-3 0 6 3 22 3 35 0 16 0 55-10 67-3 13-12 20-22 29-6 3-10 7-16 10-6 3-16 3-29 3-19 0-35-3-45-3-16-3-28-16-35-32-9-13-13-58-13-71 0-9 7-19 7-25z m173-183l0 7c-10 6-16 9-20 16-3 6-6 6-6 6 0 0-13-16-22-25l48 0z"/>
<glyph glyph-name="okticon-008-user-deprovisioning" unicode="&#57363;" d="M240 115c0 42 16 83 48 112 0 0-10 23-10 26 0 0 0 0 0 3l0 16c0 3 4 3 4 3 3 10 3 26 6 29 3 3 6 6 13 22 6 20 9 45 3 45 0 0-3 0-6-3 0 6 3 22 3 35 0 16 0 55-10 67-3 13-13 20-22 29-3 3-10 7-16 10-7 3-16 3-29 3-16 0-35-3-45-3-16-3-29-16-35-32-10-13-13-58-10-71 0-6 4-19 7-25 0-3 0-3 0-7 0 0 0 0-3 0-7 0 0-28 3-44 6-20 9-20 13-23 3-3 3-19 6-25 0 0 3-4 3-4l0-12 3-7c0 0 0 3-3 3 0-16-3-22-3-32 0 0 0 0-3 0-3 0-3-3-7-6-3-3-16-13-28-19 0 0-4 0-4 0l-73-32c-19-13-32-13-32-35l-13-74 250 0c-7 16-10 32-10 51z"/>
<glyph glyph-name="okticon-009-user-delete" unicode="&#57364;" d="M218 198l112 0c0 0-42 32-42 32 0 0 0 0 0 4-6 6-10 19-10 19 0 0 0 0 0 3l0 16c0 3 4 3 4 3 3 10 3 26 6 29 3 3 6 6 13 22 6 20 9 45 3 45 0 0-3 0-6-3 0 6 3 22 3 35 0 16 0 55-10 67-3 13-13 20-22 29-3 3-10 7-16 10-7 3-16 3-29 3-16 0-35-3-45-3-16-3-29-16-35-32-10-13-13-58-10-71 0-6 4-19 7-25 0-3 0-3 0-7 0 0 0 0-3 0-7 0 0-28 3-44 6-20 9-20 13-23 3-3 3-19 6-25 0 0 3-4 3-4l0-12 3-7c0 0 0 3-3 3 0-16-3-22-3-32 0 0 0 0-3 0-3 0-3-3-7-6-3-6-108-61-108-61-16-3-29-3-29-25l-13-74 218 0z"/>
<glyph glyph-name="okticon-010-support" unicode="&#57365;" d="M512 275c0 45-29 87-67 99-29 80-103 138-189 138-86 0-160-58-186-138-38-16-67-54-67-99 0-57 45-105 103-105l0 192c19 67 80 115 150 115 70 0 131-48 154-112l0-183c-7-16-52-102-106-105-6 9-16 19-32 19-16 0-32-16-32-32 0-19 13-32 32-32 13 0 26 10 29 22 67 4 115 93 125 119 51 6 86 48 86 102z"/>
<glyph glyph-name="okticon-011-image-upload" unicode="&#57366;" d="M282 157l-215 3 96 157 64-64 93 131 67-86 29 38 38-51 58-77 0 240c0 19-16 32-32 32l-448 0c-16 0-32-13-32-32l0-320c0-16 16-32 32-32l205 0z m-170 291c29 0 48-22 48-48 0-26-19-48-48-48-26 0-48 22-48 48 0 26 22 48 48 48z"/>
<glyph glyph-name="okticon-012-handshake" unicode="&#57367;" d="M301 320c-32-32-51-38-64-45-10-6-19-6-26-6-9 0-19 0-25 3-7 3-23 16-29 29-7 16 0 32 0 32l0 3c41 35 70 61 80 74-3 0-10 0-16 0-32 0-80-16-83-16 0 0-7-4-13-4-13 0-26 4-29 4-6 0-26 9-32 12 0 0-3 0-6 0-4 0-7-3-7-3l-38-89c-7-13-10-20-13-26 19-6 35-26 48-35l38 38 4 0c0 0 9 0 12 0 23 0 36-16 42-32 29 0 42-19 45-32 29 3 45-13 48-32 16 0 25-3 35-13 13-16 10-38 10-38l0-3-39-42c3-3 7-3 10-3 16 0 22 22 22 22l7 10 6 0c3 0 6 0 10 0 22 0 22 19 22 22l0 10 10-3c6 0 9-3 12-3 23 0 26 19 26 22l0 10 10-4c12-3 22 0 28 7 7 6 7 19 4 25-4 23-68 74-109 106z"/>
<glyph glyph-name="okticon-012-handshake2" unicode="&#57368;" d="M454 410c-32-23-67-20-67-20-22 4-51 13-51 13-19 10-32 13-42 13-9 0-12-3-12-3-45-48-87-83-96-90 0-6 0-9 3-13 6-9 19-16 35-12 16 3 64 44 74 54l3 3 3-3c61-35 131-115 131-115 3-3 7-3 7-3l57 48c13 6 13 9 13 12l-51 109c-3 7-7 7-7 7z m-339-148c-3 4-6 7-9 7-7 0-10-3-13-7l-39-35c-6-6-6-19 0-25 7-7 20-7 26 0l35 38c10 6 10 16 0 22z m45-32c-3 4-6 4-10 4-3 0-9-4-12-7l-39-35c-6-6-6-19 0-26 7-6 19-6 26 0l35 39c10 6 10 19 0 25z m48-28c-3 3-6 3-10 3-6 0-9 0-12-3l-36-39c-3-3-6-6-6-13 0-3 3-9 6-12 7-7 20-7 26 0l35 38c7 6 3 19-3 26z m45-32c-3 3-7 6-13 6-3 0-10-3-13-6l-35-39c-6-6-6-19 0-25 6-7 19-7 26 0l35 38c9 6 6 19 0 26z"/>
<glyph glyph-name="okticon-013-group" unicode="&#57369;" d="M499 96c0 19-13 19-25 26 0 0-90 44-93 51 0 3-3 3-3 3 0 0 0 0 0 3-4 7-4 16-7 16 0 0 0 0 0 3l0 13c0 0 3 3 3 3 4 7 4 20 7 23 3 3 6 3 9 19 4 16 10 38 4 38 0 0-4 0-4-3 0 7 4 19 4 29 0 13 0 48-7 58-3 6-13 16-19 22-6 3-10 6-13 10-13 6-25 6-35 6-13 0-29 0-38-3-16-3-26-13-32-26-4-13-7-48-7-64 0-6 3-16 3-22 0-3 0-3 0-7-6 0 0-22 4-38 6-13 9-13 12-19 4-3 4-19 7-23 0 0 3-3 3-3l0-19c0 0 0 3 0 3-3-6-3-13-6-19 0 0-4 0-4-3-3-7-92-51-92-51-13-7-26-7-26-26l-16-64 384 0z m-406 3c3 45 38 58 48 61 0 0 3 0 3 0 29 16 61 32 77 42 0 3-3 9-3 12-7 10-10 20-13 32-7 23-10 42-7 58 0 6-3 13-3 19 0 0 0 58 16 87 10 19 23 32 39 41-7 7-13 13-20 16-3 3-9 7-12 10-7 3-16 3-26 3-16 0-29-3-38-3-13-3-26-16-32-26-7-13-10-51-7-64 0-6 3-16 3-22 0-3 0-3 0-7-6 0 0-22 4-38 3-16 9-16 9-19 3-3 3-19 7-23 0 0 3-3 3-3l0-19c0 0 0 3 0 3 0-6-3-13-7-19 0 0-3 0-3-3-3-7-93-51-93-51-12-7-25-7-25-26l-13-64 90 0z"/>
<glyph glyph-name="okticon-014-group-add" unicode="&#57370;" d="M86 160c4 42 36 54 45 58 0 0 3 0 3 0 26 12 55 32 71 38 0 3-3 6-3 13-4 6-10 13-13 25-3 23-10 39-7 55 0 6-3 9-3 16 0 0 0 54 13 80 10 16 22 29 38 38-3 7-9 13-16 19-3 4-9 4-12 7-4 3-13 3-23 3-16 0-29 0-35-3-13-3-22-13-29-26-6-9-9-45-9-57 0-7 3-16 3-20 0-3 0-3 0-6-7 0 0-22 3-35 3-16 6-16 10-19 3-4 3-16 6-20 0 0 0-3 3-3l0-16c0 0 0 3 0 3 0-9-3-16-6-22 0 0-3 0-3-3-4-3-90-48-90-48-13-7-22-7-22-23l-10-60 83 0z m144 189c0-3 0-3 0-7-6 0-3-22 4-35 3-16 6-16 9-19 3-3 3-16 7-22 0 0 0-4 3-4l0-16c0 0 0 4 0 4-3-10-7-13-7-20 0 0-3 0-3-3-6-3-19-9-35-19l93 0 0 96 54 0c0 0 0 0 0 3 3 16 10 35 3 35 0 0-3 0-3-3 0 7 3 19 3 26 0 13 0 41-6 54-3 7-13 13-19 19-3 7-7 10-13 13-3 0-13 3-22 3-13 0-29 0-36-3-12-3-22-13-28-25-7-13-10-45-10-58 3-6 3-16 6-19z m-22-253l0 112c-26-13-54-29-54-29-13-6-26-6-26-25l-10-58z"/>
<glyph glyph-name="okticon-015-group-remove" unicode="&#57371;" d="M86 160c4 42 36 54 45 58 0 0 3 0 3 0 26 12 55 32 71 38 0 3-3 6-3 13-4 6-10 13-13 25-3 23-10 39-7 55 0 6-3 9-3 16 0 0 0 54 13 80 10 16 22 29 38 38-3 7-9 13-16 19-3 4-9 4-12 7-4 3-13 3-23 3-16 0-29 0-35-3-13-3-22-13-29-26-6-9-9-45-9-57 0-7 3-16 3-20 0-3 0-3 0-6-7 0 0-22 3-35 3-16 6-16 10-19 3-4 3-16 6-20 0 0 0-3 3-3l0-16c0 0 0 3 0 3 0-9-3-16-6-22 0 0-3 0-3-3-4-3-90-48-90-48-13-7-22-7-22-23l-10-60 83 0z m221-58l-35 36-35 35 105 105 4-3c3 7 3 16 3 16 3 3 6 3 9 19 4 16 10 36 4 36 0 0-4 0-4-4 0 7 4 20 4 26 0 13 0 42-7 54-3 7-13 13-19 20-6 3-10 6-16 9-3 0-13 3-22 3-13 0-29 0-36-3-12-3-22-13-28-25-7-13-10-45-10-58 0-6 3-16 3-19 0-3 0-3 0-7-3 0 0-22 7-35 3-16 6-16 9-19 3-3 3-16 7-22 0 0 0-4 3-4l0-16c0 0 0 4 0 4-3-10-7-13-7-20 0 0-3 0-3-3-3-6-86-48-86-48-16-6-29-6-29-25l-10-58 180 0z"/>
<glyph glyph-name="okticon-016-group-push" unicode="&#57372;" d="M86 160c4 42 36 54 45 58 0 0 3 0 3 0 26 12 55 32 71 38 0 3-3 6-3 13-4 6-10 13-13 25-3 23-10 39-7 55 0 6-3 9-3 16 0 0 0 54 13 80 10 16 22 29 38 38-3 7-9 13-16 19-3 4-9 4-12 7-4 3-13 3-23 3-16 0-29 0-35-3-13-3-22-13-29-26-6-9-9-45-9-57 0-7 3-16 3-20 0-3 0-3 0-6-7 0 0-22 3-35 3-16 6-16 10-19 3-4 3-16 6-20 0 0 0-3 3-3l0-16c0 0 0 3 0 3 0-9-3-16-6-22 0 0-3 0-3-3-4-3-90-48-90-48-13-7-22-7-22-23l-10-60 83 0z m154-32l0 48 96 0 0 112 10-10c0 4 0 7 3 7 3 3 6 3 9 19 4 16 10 35 4 35 0 0-4 0-4-3 0 6 4 19 4 26 0 12 0 41-7 54-3 6-13 13-19 19-6 10-10 13-16 16-3 0-13 3-22 3-13 0-29 0-36-3-12-3-22-13-28-25-7-13-10-45-10-58 0-6 3-16 3-19 0-3 0-3 0-7-3 0 0-22 7-35 3-16 6-16 9-19 3-3 3-16 7-22 0 0 0-4 3-4l0-16c0 0 0 4 0 4-3-10-7-13-7-20 0 0-3 0-3-3-3-6-86-48-86-48-16-6-29-6-29-25l-10-58 122 0z"/>
<glyph glyph-name="okticon-017-group-delete" unicode="&#57373;" d="M86 160c4 42 36 54 45 58 0 0 3 0 3 0 26 12 55 32 71 38 0 3-3 6-3 13-4 6-10 13-13 25-3 23-10 39-7 55 0 6-3 9-3 16 0 0 0 54 13 80 10 16 22 29 38 38-3 7-9 13-16 19-3 4-9 4-12 7-4 3-13 3-23 3-16 0-29 0-35-3-13-3-22-13-29-26-6-9-9-45-9-57 0-7 3-16 3-20 0-3 0-3 0-6-7 0 0-22 3-35 3-16 6-16 10-19 3-4 3-16 6-20 0 0 0-3 3-3l0-16c0 0 0 3 0 3 0-9-3-16-6-22 0 0-3 0-3-3-4-3-90-48-90-48-13-7-22-7-22-23l-10-60 83 0z m132-64l0 102 179 0c-19 10-42 23-42 26 0 3-3 3-3 3 0 0 0 0 0 3-3 7-3 13-3 16 0 0 0 0 0 4l0 12c0 0 3 4 3 4 3 6 3 19 6 22 4 3 7 3 10 19 3 16 10 35 3 35 0 0-3 0-3-3 0 7 3 19 3 26 0 13 0 41-6 54-3 7-13 13-19 19-16 7-20 10-26 13-3 0-13 3-22 3-13 0-29 0-36-3-12-3-22-13-28-25-7-13-10-45-10-58 0-6 3-16 3-19 0-3 0-3 0-7-3 0 0-22 7-35 3-16 6-16 9-19 3-3 3-16 7-22 0 0 0-4 3-4l0-16c0 0 0 4 0 4-3-10-7-13-7-20 0 0-3 0-3-3-3-6-86-48-86-48-16-6-29-6-29-25l-10-58z"/>
<glyph glyph-name="okticon-018-group-override" unicode="&#57374;" d="M86 160c4 42 36 54 45 58 0 0 3 0 3 0 26 12 55 32 71 38 0 3-3 6-3 13-4 6-10 13-13 25-3 23-10 39-7 55 0 6-3 9-3 16 0 0 0 54 13 80 10 16 22 29 38 38-3 7-9 13-16 19-3 4-9 4-12 7-4 3-13 3-23 3-16 0-29 0-35-3-13-3-22-13-29-26-6-9-9-45-9-57 0-7 3-16 3-20 0-3 0-3 0-6-7 0 0-22 3-35 3-16 6-16 10-19 3-4 3-16 6-20 0 0 0-3 3-3l0-16c0 0 0 3 0 3 0-9-3-16-6-22 0 0-3 0-3-3-4-3-90-48-90-48-13-7-22-7-22-23l-10-60 83 0z m119-64l41 22-41 23 25 45 20 32 25 38 39-19 9-3 0 54 26 0c3 3 6 3 9 19 4 16 10 35 4 35 0 0-4 0-4-3 0 7 4 19 4 26 0 13 0 41-7 54-3 7-13 13-19 19-6 7-10 10-16 13-3 0-13 3-22 3-13 0-29 0-36-3-12-3-22-13-28-25-7-13-10-45-10-58 0-6 3-16 3-19 0-3 0-3 0-7-3 0 0-22 7-35 3-16 6-16 9-19 3-3 3-16 7-22 0 0 0-4 3-4l0-16c0 0 0 4 0 4-3-10-7-13-7-20 0 0-3 0-3-3-3-6-86-48-86-48-16-6-29-6-29-25l-10-58z"/>
<glyph glyph-name="okticon-019-chevron-small" unicode="&#57375;" d="M186 352l96-96-96-96 38-38 134 134-134 134z"/>
<glyph glyph-name="okticon-020-chevron-big" unicode="&#57376;" d="M195 451l-3 3-38-38 160-160-160-160 38-38 198 198z"/>
<glyph glyph-name="okticon-021-duo-call" unicode="&#57377;" d="M195 195c-38 39-73 80-57 99 25 26 48 42 3 96-45 55-74 13-99-12-29-29 0-132 102-234 102-102 205-128 234-102 25 25 67 54 12 99-54 45-70 22-96-3-16-16-60 19-99 57z m29 125l0-32c42 0 64-22 64-64l32 0c0 61-35 96-96 96z m0 80l0-32c80 0 144-64 144-144l32 0c0 102-74 176-176 176z m0 80l0-32c122 0 224-102 224-224l32 0c0 141-115 256-256 256z"/>
<glyph glyph-name="okticon-022-visibility" unicode="&#57378;" d="M256 256c-13 13 19 64 0 64-35 0-64-29-64-64 0-35 29-64 64-64 35 0 64 29 64 64 0 16-54-13-64 0z m0 160c-166 0-256-141-256-163 0-23 90-157 256-157 166 0 256 141 256 160 0 19-90 160-256 160z m0-256c-54 0-96 42-96 96 0 54 42 96 96 96 54 0 96-42 96-96 0-54-42-96-96-96z"/>
<glyph glyph-name="okticon-023-conversation" unicode="&#57379;" d="M214 480c119 0 215-77 215-170 0-92-96-169-215-169-12 0-22 0-32 3-48-48-96-48-150-48 0 0 48 38 48 67 0 3 0 7 0 13-48 32-80 80-80 134 0 93 96 170 214 170z m228-384c0-26 38-64 38-64-45 0-83 6-125 45-9 0-19-3-29-3-41 0-80 12-112 32 64 0 125 19 170 57 22 19 42 42 54 64 13 26 20 55 20 83 0 4 0 10 0 13 32-25 51-61 51-102 0-45-26-87-67-115 0-4 0-7 0-10z"/>
<glyph glyph-name="okticon-024-wrench" unicode="&#57380;" d="M474 406l-64-64-55 16-16 55 64 64c-35 9-73 3-102-26-39-38-39-105 0-144 38-38 105-38 144 0 32 26 41 64 29 99z m-336-352l208 231c16 16 16 45 0 61-16 19-45 19-64 3l-231-208c0 0-3-3-3-3-22-26-19-64 3-87 26-25 64-22 87 3z m-68 39c0 13 10 19 20 19 9 0 19-10 19-19 0-13-10-19-19-19-10 0-20 6-20 19z"/>
<glyph glyph-name="okticon-025-settings" unicode="&#57381;" d="M461 512c-10 0-23-3-32-16l-112-109-87-105 16-16-179-180-29-19-35-35 32-32 39 38 16 29 179 179 19-19 102 90 106 112c32 32 10 57 0 67-6 3-19 16-35 16z"/>
<glyph glyph-name="okticon-025-settings2" unicode="&#57382;" d="M355 234l-35-29-32-32-16 16-13-13 141-154c0 0 3-3 3-3 26-22 64-19 87 3 22 26 19 64-4 87z m96-192c-13 0-19 9-19 19 0 9 10 19 19 19 13 0 19-10 19-19 0-10-9-19-19-19z m-317 272l42-48 10 9-10 10 29 35 25 32-32 26c13 35 7 73-22 102-29 29-67 35-102 26l64-64-13-55-55-13-64 64c-9-35-3-73 26-102 29-29 67-35 102-22z"/>
<glyph glyph-name="okticon-026-directory-add" unicode="&#57383;" d="M112 160c0 10-10 19-19 19l-74 0c-9 0-19-6-19-19 0-10 10-19 19-19l74 0c9 0 19 9 19 19z m0 256c0 10-10 19-19 19l-74 0c-9 0-19-6-19-19 0-10 10-19 19-19l74 0c9 0 19 9 19 19z m0-125c0 10-10 19-19 19l-74 0c-9 0-19-9-19-19 0-9 10-19 19-19l74 0c9 0 19 6 19 19z m102-93l96 0 0 96 74 0 0 192c0 16-10 26-22 26l-292 0c-12 0-25-10-25-22l0-32 51 0c22 0 38-20 38-39 0-22-19-38-38-38l-51 0 0-48 51 0c22 0 38-19 38-39 0-22-19-38-38-38l-51 0 0-51 51 0c22 0 38-19 38-39 0-22-19-38-38-38l-51 0 0-32c0-13 9-22 22-22l147 0z"/>
<glyph glyph-name="okticon-027-directory" unicode="&#57384;" d="M173 128c0 10-10 19-19 19l-71 0c-9 0-19-6-19-19 0-10 10-19 19-19l71 0c12 0 19 9 19 19z m0 256c0 10-10 19-19 19l-71 0c-9 0-19-6-19-19 0-10 10-19 19-19l71 0c12 0 19 9 19 19z m0-125c0 10-10 19-19 19l-71 0c-9 0-19-9-19-19 0-9 10-19 19-19l71 0c12 0 19 6 19 19z m253 221l-295 0c-13 0-22-10-22-22l0-32 51 0c22 0 38-20 38-39 0-22-19-38-38-38l-51 0 0-48 51 0c22 0 38-19 38-39 0-22-19-38-38-38l-51 0 0-51 51 0c22 0 38-19 38-39 0-22-19-38-38-38l-51 0 0-32c0-13 9-22 22-22l295 0c12 0 22 9 22 22l0 394c0 12-10 22-22 22z"/>
<glyph glyph-name="okticon-028-directory-remove" unicode="&#57385;" d="M112 160c0 10-10 19-19 19l-74 0c-9 0-19-6-19-19 0-10 10-19 19-19l74 0c9 0 19 9 19 19z m0 256c0 10-10 19-19 19l-74 0c-9 0-19-6-19-19 0-10 10-19 19-19l74 0c9 0 19 9 19 19z m0-125c0 10-10 19-19 19l-74 0c-9 0-19-9-19-19 0-9 10-19 19-19l74 0c9 0 19 6 19 19z m160-221l35 36-70 70 70 70 35 36 36-36 6-16 0 260c0 12-10 22-22 22l-292 0c-12 0-25-10-25-22l0-32 51 0c22 0 38-20 38-39 0-22-19-38-38-38l-51 0 0-48 51 0c22 0 38-19 38-39 0-22-19-38-38-38l-51 0 0-51 51 0c22 0 38-19 38-39 0-22-19-38-38-38l-51 0 0-32c0-13 9-22 22-22l199 0z"/>
<glyph glyph-name="okticon-029-bookmark" unicode="&#57386;" d="M96 512l0-480 96 96 96-96 0 480c0 0-192-3-192 0z"/>
<glyph glyph-name="okticon-030-cross" unicode="&#57387;" d="M416 384l-32 32-128-128-128 128-32-32 128-128-128-128 32-32 128 128 128-128 32 32-128 128z"/>
<glyph glyph-name="okticon-031-arrow" unicode="&#57388;" d="M256 128l192 128-192 128 0-96-192 0 0-64 192 0z"/>
<glyph glyph-name="okticon-032-activate" unicode="&#57389;" d="M288 448c0 19-19 32-32 32-13 0-32-16-32-32 0-16 0-147 0-160 0-13 19-32 32-32 13 0 32 16 32 32z m118-38c-6 6-25 9-35 0-9-10-13-29 0-39 39-38 58-73 58-121 0-93-77-167-173-167-96 0-173 74-173 167 0 48 23 89 58 124 9 10 9 26 0 36-10 9-29 6-35-4-42-35-74-96-74-156 0-122 99-218 224-218 125 0 224 96 224 218 0 64-29 118-74 160z"/>
<glyph glyph-name="okticon-033-sms" unicode="&#57390;" d="M256 480c141 0 256-86 256-195 0-109-115-195-256-195-13 0-26 0-38 3-58-51-122-61-186-61 35 16 64 58 64 90 0 3 0 9 0 12-58 36-96 90-96 151 0 109 115 195 256 195z"/>
<glyph glyph-name="okticon-034-feedback" unicode="&#57391;" d="M416 122c0 3 0 9 0 12 58 36 96 90 96 151 0 109-115 195-256 195-141 0-256-86-256-195 0-109 115-195 256-195 13 0 26 0 38 3 58-51 122-61 186-61-35 16-64 58-64 90z m-128 86l-160 0 0 48 160 0z m96 112l-256 0 0 48 256 0z"/>
<glyph glyph-name="okticon-035-checkmark-big" unicode="&#57392;" d="M416 390l-224-224-96 96-38-38 134-134 262 262z"/>
<glyph glyph-name="okticon-036-checkmark-small" unicode="&#57393;" d="M224 160l-96 96 32 32 64-64 128 128 32-32z"/>
<glyph glyph-name="okticon-037-task" unicode="&#57394;" d="M378 230l0-128-311 0 0 311 224 0 0 41-265 0 0-393 393 0 0 169z"/>
<glyph glyph-name="okticon-037-task2" unicode="&#57395;" d="M451 454l-224-224-96 100-38-42 134-131 263 262z"/>
<glyph glyph-name="okticon-038-reset" unicode="&#57396;" d="M42 93l38 29c42-55 106-90 182-90 103 0 189 70 218 160 0 0-54 10-54 10-26-68-90-112-164-112-57 0-105 28-137 70l35 29-128 35z"/>
<glyph glyph-name="okticon-039-clone" unicode="&#57398;" d="M352 32l0 288c0 16-13 32-32 32l-288 0c-16 0-32-16-32-32l0-288c0-16 13-32 32-32l288 0c19 0 32 16 32 32z"/>
<glyph glyph-name="okticon-039-clone2" unicode="&#57399;" d="M365 400c19 0 35-16 35-35l0-205 80 0c19 0 32 16 32 32l0 288c0 16-13 32-32 32l-288 0c-19 0-32-16-32-32l0-80z"/>
<glyph glyph-name="okticon-040-code" unicode="&#57400;" d="M160 384l-128-128 128-128 32 32-96 96 96 96z m192 0l-32-32 96-96-96-96 32-32 128 128z"/>
<glyph glyph-name="okticon-041-location" unicode="&#57401;" d="M256 480c-80 0-144-64-144-141 0-83 144-307 144-307 0 0 144 224 144 307 0 80-64 141-144 141z m0-195c-32 0-58 25-58 57 0 32 26 55 58 55 32 0 58-26 58-58 0-32-26-54-58-54z"/>
<glyph glyph-name="okticon-042-plus" unicode="&#57402;" d="M282 282l0 166-52 0 0-166-166 0 0-52 166 0 0-166 52 0 0 166 166 0 0 52z"/>
<glyph glyph-name="okticon-043-token-add" unicode="&#57403;" d="M323 512c-70 0-128-58-128-125 0-13 3-25 7-35l-202-205 0-83 83 0 0 58 58 0 0 57 57 0 0 51 58 0 32 32c13-3 22-6 35-6 71 0 125 58 125 125 0 67-54 131-125 131z m42-58c16 0 29-12 29-28 0-16-13-29-29-29-16 0-29 13-29 29 0 16 13 28 29 28z"/>
<glyph glyph-name="okticon-044-key" unicode="&#57404;" d="M355 480c-70 0-128-58-128-128 0-13 3-26 7-35l-202-202 0-83 83 0 0 54 58 0 0 55 57 0 0 57 58 0 32 32c13-3 22-6 38-6 68 3 122 61 122 128 0 67-54 128-125 128z m42-58c16 0 29-9 29-28 0-20-13-29-29-29-16 0-29 9-29 29 0 19 13 28 29 28z"/>
<glyph glyph-name="okticon-045-swa" unicode="&#57405;" d="M205 64l115 115 0 109c0 10 0 32-32 32l0 64c0 74-54 128-128 128-70 0-128-54-128-128l0-64c-32 0-32-22-32-32l0-192c0-32 22-32 32-32z m-109 320c0 38 26 64 64 64 38 0 64-26 64-64l0-64-128 0z"/>
<glyph glyph-name="okticon-047-download" unicode="&#57407;" d="M128 288l128-192 128 192-96 0 0 192-64 0 0-192z m272-160l0-48-288 0 0 48-48 0 0-96 384 0 0 96z"/>
<glyph glyph-name="okticon-048-pencil" unicode="&#57408;" d="M480 419l-287-287-64 63 288 287z m-384-259l-32-96 96 32z"/>
<glyph glyph-name="okticon-049-magnifying-glass" unicode="&#57409;" d="M470 86l-89 90c22 32 35 70 35 112 0 106-86 192-192 192-106 0-192-86-192-192 0-106 86-192 192-192 42 0 80 13 112 35l90-89c12-13 32-13 44 0 13 12 13 32 0 44z m-390 202c0 80 64 144 144 144 80 0 144-64 144-144 0-80-64-144-144-144-80 0-144 64-144 144z"/>
<glyph glyph-name="okticon-050-apps" unicode="&#57410;" d="M128 352l-64 0c-32 0-32 0-32 32l0 32c0 32 0 32 32 32l64 0c32 0 32 0 32-32l0-32c0-32 0-32-32-32z m320 0l-64 0c-32 0-32 0-32 32l0 32c0 32 0 32 32 32l64 0c32 0 32 0 32-32l0-32c0-32 0-32-32-32z m-160 0l-64 0c-32 0-32 0-32 32l0 32c0 32 0 32 32 32l64 0c32 0 32 0 32-32l0-32c0-32 0-32-32-32z m-160-288l-64 0c-32 0-32 0-32 32l0 32c0 32 0 32 32 32l64 0c32 0 32 0 32-32l0-32c0-32 0-32-32-32z m320 0l-64 0c-32 0-32 0-32 32l0 32c0 32 0 32 32 32l64 0c32 0 32 0 32-32l0-32c0-32 0-32-32-32z m-160 0l-64 0c-32 0-32 0-32 32l0 32c0 32 0 32 32 32l64 0c32 0 32 0 32-32l0-32c0-32 0-32-32-32z m-160 144l-64 0c-32 0-32 0-32 32l0 32c0 32 0 32 32 32l64 0c32 0 32 0 32-32l0-32c0-32 0-32-32-32z m320 0l-64 0c-32 0-32 0-32 32l0 32c0 32 0 32 32 32l64 0c32 0 32 0 32-32l0-32c0-32 0-32-32-32z m-160 0l-64 0c-32 0-32 0-32 32l0 32c0 32 0 32 32 32l64 0c32 0 32 0 32-32l0-32c0-32 0-32-32-32z"/>
<glyph glyph-name="okticon-051-app-add" unicode="&#57411;" d="M90 390l-58 0c-32 0-32 0-32 32l0 29c0 29 0 29 32 29l61 0c29 0 29 0 29-29l0-29c0-32 0-32-32-32z m297 0l-57 0c-29 0-29 0-29 29l0 32c-3 29-3 29 29 29l57 0c29 0 29 0 29-29l0-29c0-32 0-32-29-32z m-147 0l-61 0c-29 0-29 0-29 29l0 32c0 29 0 29 29 29l58 0c29 0 29 0 29-29l0-29c3-32 3-32-26-32z m-150-265l-58 0c-29 0-29 0-29 29l0 28c-3 32-3 32 29 32l61 0c29 0 29 0 29-28l0-29c0-32 0-32-32-32z m0 134l-58 0c-32 0-32 0-32 29l0 29c0 29 0 29 32 29l61 0c29 0 29 0 29-29l0-29c0-29 0-29-32-29z m224 0l0 35 102 0 0 23c0 29 0 29-29 29l-57 0c-29 0-29 0-29-29l0-29c-3-22-3-29 13-29z m-74 0l-61 0c-29 0-29 0-29 29l0 29c0 29 0 29 29 29l58 0c29 0 29 0 29-29l0-29c3-29 3-29-26-29z m-22-61l51 0c0 13-7 13-29 13l-61 0c-29 0-29 0-29-29l0-28c0-29 0-29 29-29l35 0 0 73z"/>
<glyph glyph-name="okticon-052-app-remove" unicode="&#57412;" d="M90 390l-58 0c-32 0-32 0-32 32l0 29c0 29 0 29 32 29l61 0c29 0 29 0 29-29l0-29c0-32 0-32-32-32z m297 0l-57 0c-29 0-29 0-29 29l0 32c-3 29-3 29 29 29l57 0c29 0 29 0 29-29l0-29c0-32 0-32-29-32z m-147 0l-61 0c-29 0-29 0-29 29l0 32c0 29 0 29 29 29l58 0c29 0 29 0 29-29l0-29c3-32 3-32-26-32z m-150-265l-58 0c-29 0-29 0-29 29l0 28c-3 32-3 32 29 32l61 0c29 0 29 0 29-28l0-29c0-32 0-32-32-32z m179 16l-29 29 29 28c0 13-7 13-29 13l-61 0c-29 0-29 0-29-29l0-28c0-29 0-29 29-29l58 0c25 0 32 0 32 16z m-179 118l-58 0c-32 0-32 0-32 29l0 29c0 29 0 29 32 29l61 0c29 0 29 0 29-29l0-29c0-29 0-29-32-29z m150 0l-61 0c-29 0-29 0-29 29l0 29c0 29 0 29 29 29l58 0c29 0 29 0 29-29l0-29c3-29 3-29-26-29z m86 0l16 16 16-16 32 0c26 0 26 0 26 29l0 29c0 29 0 29-29 29l-57 0c-29 0-29 0-29-29l0-29c-3-29-3-29 25-29z"/>
<glyph glyph-name="okticon-054-app-assign" unicode="&#57414;" d="M90 390l-58 0c-32 0-32 0-32 32l0 29c0 29 0 29 32 29l61 0c29 0 29 0 29-29l0-29c0-32 0-32-32-32z m297 0l-57 0c-29 0-29 0-29 29l0 32c-3 29-3 29 29 29l57 0c29 0 29 0 29-29l0-29c0-32 0-32-29-32z m-147 0l-61 0c-29 0-29 0-29 29l0 32c0 29 0 29 29 29l58 0c29 0 29 0 29-29l0-29c3-32 3-32-26-32z m-150-265l-58 0c-29 0-29 0-29 29l0 28c-3 32-3 32 29 32l61 0c29 0 29 0 29-28l0-29c0-32 0-32-32-32z m150 0l-61 0c-29 0-29 0-29 29l0 28c0 29 0 29 29 29l58 0c29 0 29 0 29-29l0-28c3-29 3-29-26-29z m-150 134l-58 0c-32 0-32 0-32 29l0 29c0 29 0 29 32 29l61 0c29 0 29 0 29-29l0-29c0-29 0-29-32-29z m150 0l-61 0c-29 0-29 0-29 29l0 29c0 29 0 29 29 29l58 0c29 0 29 0 29-29l0-29c3-29 3-29-26-29z m80-80c0 0 0 3 0 3 0 10 3 20 3 32-25 0-25 0-25-28l0-26z m10 80l19 0c16 19 41 35 67 42l0 16c0 29 0 29-29 29l-57 0c-29 0-29 0-29-29l0-29c-3-29-3-29 29-29z"/>
<glyph glyph-name="okticon-055-app-refresh" unicode="&#57415;" d="M90 390l-58 0c-32 0-32 0-32 32l0 29c0 29 0 29 32 29l61 0c29 0 29 0 29-29l0-29c0-32 0-32-32-32z m297 0l-57 0c-29 0-29 0-29 29l0 32c-3 29-3 29 29 29l57 0c29 0 29 0 29-29l0-29c0-32 0-32-29-32z m-147 0l-61 0c-29 0-29 0-29 29l0 32c0 29 0 29 29 29l58 0c29 0 29 0 29-29l0-29c3-32 3-32-26-32z m-150-265l-58 0c-29 0-29 0-29 29l0 28c-3 32-3 32 29 32l61 0c29 0 29 0 29-28l0-29c0-32 0-32-32-32z m0 134l-58 0c-32 0-32 0-32 29l0 29c0 29 0 29 32 29l61 0c29 0 29 0 29-29l0-29c0-29 0-29-32-29z m297 0l-57 0c-29 0-29 0-29 29l0 29c0 29 0 29 29 29l57 0c29 0 29 0 29-29l0-29c0-29 0-29-29-29z m-147 0l-61 0c-29 0-29 0-29 29l0 29c0 29 0 29 29 29l58 0c29 0 29 0 29-29l0-29c3-29 3-29-26-29z m0-134c6 22 16 41 29 57 0 29 0 29-29 29l-61 0c-29 0-29 0-29-29l0-28c0-29 0-29 29-29z"/>
<glyph glyph-name="okticon-056-reports" unicode="&#57416;" d="M416 224c0-106-86-192-192-192-106 0-192 86-192 192 0 106 86 192 192 192l0-192z"/>
<glyph glyph-name="okticon-056-reports2" unicode="&#57417;" d="M288 480c106 0 192-86 192-192l-192 0z"/>
<glyph glyph-name="okticon-057-filter" unicode="&#57418;" d="M32 480l416 0-160-224 0-128-96-64 0 192z"/>
<glyph glyph-name="okticon-058-run" unicode="&#57419;" d="M256 480c-125 0-224-99-224-224 0-125 99-224 224-224 125 0 224 99 224 224 0 125-99 224-224 224z m-64-320l0 192 160-96z"/>
<glyph glyph-name="okticon-060-no" unicode="&#57421;" d="M256 480c-125 0-224-99-224-224 0-125 99-224 224-224 125 0 224 99 224 224 0 125-99 224-224 224z m0-51c38 0 74-13 102-35l-240-240c-22 28-35 64-35 102 0 96 77 173 173 173z m0-346c-38 0-74 13-102 35l240 240c22-28 35-64 35-102 0-96-77-173-173-173z"/>
<glyph glyph-name="okticon-061-garbage" unicode="&#57422;" d="M128 32l256 0 32 320-320 0z m224 416l0 32-192 0 0-32-96 0 0-64 384 0 0 64z"/>
<glyph glyph-name="okticon-062-remove" unicode="&#57423;" d="M256 480c-125 0-224-99-224-224 0-125 99-224 224-224 125 0 224 99 224 224 0 125-99 224-224 224z m109-291l-39-39-70 68-67-68-39 39 68 67-71 67 39 39 70-68 67 68 39-39-68-67z"/>
<glyph glyph-name="okticon-063-add" unicode="&#57424;" d="M256 480c-125 0-224-99-224-224 0-125 99-224 224-224 125 0 224 99 224 224 0 125-99 224-224 224z m125-195l0-58-96 0 0-96-58 0 0 96-96 0 0 58 96 0 0 96 58 0 0-96z"/>
<glyph glyph-name="okticon-064-success" unicode="&#57425;" d="M256 480c-125 0-224-99-224-224 0-125 99-224 224-224 125 0 224 99 224 224 0 125-99 224-224 224z m138-160l-186-186-109 106 39 38 67-67 147 147z"/>
<glyph glyph-name="okticon-065-delete" unicode="&#57426;" d="M256 480c-125 0-224-99-224-224 0-125 99-224 224-224 125 0 224 99 224 224 0 125-99 224-224 224z m125-253l-250 0 0 58 250 0z"/>
<glyph glyph-name="okticon-066-info" unicode="&#57427;" d="M256 480c-125 0-224-99-224-224 0-125 99-224 224-224 125 0 224 99 224 224 0 125-99 224-224 224z m29-365l-58 0 0 173 58 0z m-29 215c-19 0-32 16-32 32 0 19 16 32 32 32 19 0 32-16 32-32 0-16-13-32-32-32z"/>
<glyph glyph-name="okticon-068-error" unicode="&#57429;" d="M256 480c-125 0-224-102-224-224 0-122 99-224 224-224 125 0 224 99 224 224 0 125-99 224-224 224z m32-90l-6-169-52 0-6 169z m-32-272c-19 0-35 16-35 36 0 19 16 35 35 35 19 0 35-16 35-35 0-20-16-36-35-36z"/>
<glyph glyph-name="okticon-069-expand" unicode="&#57430;" d="M256 480c-125 0-224-99-224-224 0-125 99-224 224-224 125 0 224 99 224 224 0 125-99 224-224 224z m99-224l-141-141-28 29 112 112-112 112 28 29z"/>
<glyph glyph-name="okticon-070-time" unicode="&#57431;" d="M256 480c-125 0-224-99-224-224 0-125 99-224 224-224 125 0 224 99 224 224 0 125-99 224-224 224z m74-320l-90 90 0 134 35 0 0-122 80-80z"/>
<glyph glyph-name="okticon-071-warning" unicode="&#57432;" d="M256 480c-141-51-195-246-224-352 83-83 362-86 448 0-29 106-83 301-224 352z m32-90l-6-169-52 0-6 169z m-32-272c-19 0-35 16-35 36 0 19 16 35 35 35 19 0 35-16 35-35 0-20-16-36-35-36z"/>
<glyph glyph-name="okticon-072-error-small" unicode="&#57433;" d="M256 448c-106 0-192-86-192-192 0-106 86-192 192-192 106 0 192 86 192 192 0 106-86 192-192 192z m26-74l-7-150-38 0-7 150z m-26-236c-13 0-26 12-26 25 0 13 13 26 26 26 13 0 26-13 26-26 0-13-13-25-26-25z"/>
<glyph glyph-name="okticon-073-enrolling" unicode="&#57434;" d="M256 480c-125 0-224-99-224-224 0-125 99-224 224-224 125 0 224 99 224 224 0 125-99 224-224 224z m-26-160l0 64 48 0 0-64 74 0-96-128-96 128z m154-192l-256 0 0 64 32 0 0-32 192 0 0 32 32 0z"/>
<glyph glyph-name="okticon-074-status" unicode="&#57435;" d="M490 224l-84 0-28 112c0 10-10 16-20 16-9 0-16-6-19-16l-32-134-41 243c0 9-10 16-20 19l-3 0c-6 0-16-6-16-16l-45-224-9 0-19 67c-4 7-10 13-20 13-6 0-16-6-19-13l-16-67-80 0c-9 0-19-10-19-19 0-10 10-19 19-19l93 0c10 0 16 6 19 12l3 32 7-32c3-9 9-12 19-12l42 0c9 0 16 6 19 16l29 124 32-224c0-9 9-16 16-19l3 0c9 0 16 7 19 16l42 160 9-54c3-10 10-16 19-16l100 0c9 0 19 9 19 19 0 10-10 16-19 16z m-189-134z"/>
<glyph glyph-name="okticon-075-bug" unicode="&#57436;" d="M397 467c0 0-3 0-3 0-48-22-68-32-74-61-13 7-48 10-64 10-16 0-51-3-64-13-10 29-29 39-77 61 0 0-3 0-3 0-3 0-6-3-10-6 0-4 4-10 7-13 45-23 61-29 67-55-13-9-22-25-32-41 19-16 70-39 112-39 38 0 93 23 112 39-10 16-19 32-32 41 3 26 19 32 67 55 3 3 7 9 7 13-4 6-7 9-13 9z m54-243l-54 0c0 13 0 22-3 32l48 26c9 6 9 19 6 28-6 10-16 13-26 7l-38-19c0 9 0 16-3 22-29-19-83-38-125-38-45 0-96 19-125 38-3-6-6-13-6-19l-42 19c-6 6-19 3-22-6-7-10-3-23 6-29l48-26c0-9-3-22-3-32l-51 0c-10-3-19-13-19-22 0-13 6-23 19-23l57 0c0-9 4-19 7-28l-61-26c-10-6-10-19-6-29 3-6 9-9 16-9 3 0 6 0 9 3l51 19c23-58 77-74 122-74 45 0 99 16 122 74l48-19c3-3 6-3 9-3 7 0 13 3 16 9 7 10 3 23-6 29l-55 22c4 10 4 20 7 29l57 0c10 0 20 10 20 23-4 12-13 22-23 22z"/>
<glyph glyph-name="okticon-076-lock" unicode="&#57437;" d="M384 32l-256 0c-10 0-32 0-32 32l0 192c0 10 0 32 32 32l0 64c0 74 54 128 128 128 74 0 128-54 128-128l0-64c32 0 32-22 32-32l0-192c0-10 0-32-32-32z m-64 320c0 38-26 64-64 64-38 0-64-26-64-64l0-64 128 0z"/>
<glyph glyph-name="okticon-077-dashboard" unicode="&#57438;" d="M397 298c13-23 19-48 19-74 0-45-19-83-48-112-29-29 16-74 45-45 41 42 67 99 67 160 0 55-19 106-54 147-10-28-20-51-29-76z m-253-186c-29 29-48 67-48 112 0 90 70 160 160 160 10 0 22 0 32-3 13 19 29 38 42 54-23 10-48 13-74 13-125 0-224-99-224-224 0-61 26-118 64-157 32-32 77 13 48 45z"/>
<glyph glyph-name="okticon-077-dashboard2" unicode="&#57439;" d="M230 208c-9-16-6-35 10-45 6-3 13-3 16-3 10 0 22 6 29 16 9 16 118 272 118 272 0 0-166-224-173-240z"/>
<glyph glyph-name="okticon-078-task-notepad" unicode="&#57440;" d="M179 416l93 0c0 0 22 0 22 26 0 25-22 22-22 22 0 0 0 48-48 48-48 0-45-48-45-48 0 0-22 0-22-22-3-23 22-26 22-26z m45 74c13 0 22-10 22-23 0-13-9-25-22-25-13 0-22 9-22 22 0 13 9 26 22 26z m150-135l42 42 0 19c0 16-16 32-32 32l-64 0 0-38c0-13-10-23-22-23l-148 0c-12 0-22 10-22 23l0 38-64 0c-16 0-32-16-32-32l0-384c0-16 16-32 32-32l320 0c16 0 32 16 32 32l0 170-42-42 0-118-300 0 0 364 12 0c4-35 29-60 64-60l144 0c36 0 64 28 64 60l13 0 0-51z"/>
<glyph glyph-name="okticon-078-task-notepad2" unicode="&#57441;" d="M442 368l-196-195-80 77-38-39 118-115 234 234z"/>
<glyph glyph-name="okticon-079-lightbulb" unicode="&#57442;" d="M211 61c10-16 26-29 45-29 19 0 35 10 45 26l-90 0z m93 83c10 0 19 10 19 19 0 77 67 87 67 183 0 73-60 134-134 134-74 0-134-61-134-134 0-96 67-109 67-183 0-9 9-19 19-19z m10-26c0-6-7-9-10-9l-96 0c-6 0-10 6-10 9 0 7 7 10 10 10l93 0c9 3 13-3 13-10z m0-35c0-6-7-9-10-9l-96 0c-6 0-10 6-10 9 0 7 7 10 10 10l93 0c9 3 13-3 13-10z"/>
<glyph glyph-name="okticon-080-plugin" unicode="&#57443;" d="M259 477c-125 0-224-99-224-224 0-125 99-224 224-224 125 0 224 99 224 224 0 125-99 224-224 224z m122-266c-10 0-16 7-23 13 0 0-16 13-12-6 3-29 12-61 12-61 4-13-9-13-9-13-13 0-64 6-64 6-13 0-13 7-13 7 3 9 13 9 13 25 0 13-7 26-23 26-16 0-25-13-25-26 0-9 3-12 9-22 4-10 0-13-3-13 0 0 3 0 3 0l-3 0c0 0-48-3-67-6-10 0-10 9-10 9-6 16-9 61-9 61 0 13 6 13 6 13 10-3 10-16 29-16 13 0 26 6 26 22 0 16-16 26-29 26-7 0-13-3-23-10-12-6-9 10-9 10 0 13 3 64 3 64 0 0 0 6 3 6 3 4 7 4 10 4 3 0 67-4 67-4 16 0-3 20-3 20-7 3-10 9-10 19 0 16 13 29 32 29 16 0 32-13 32-29 0-19-29-32-16-39 16-6 74 0 74 0 9 0 9-12 9-12l-9-58c-3-13 13 0 13 0 6 6 12 10 22 10 16 0 29-13 29-29-3-13-16-26-32-26z"/>
<glyph glyph-name="okticon-081-instructions" unicode="&#57444;" d="M256 480c-125 0-224-102-224-224 0-122 99-224 224-224 125 0 224 99 224 224 0 125-99 224-224 224z m-115-346c-13 0-26 13-26 26 0 13 13 26 26 26 13 0 25-13 25-26 0-13-9-26-25-26z m0 96c-13 0-26 13-26 26 0 13 13 26 26 26 13 0 25-13 25-26 0-13-9-26-25-26z m0 96c-13 0-26 10-26 26 0 16 13 26 26 26 13 0 25-13 25-26 0-13-9-26-25-26z m77-185c0 0 3 0 3 0 0 0-3 0-3 0z m163 0l-157 0c-10 0-19 9-19 19 0 10 9 19 19 19l157 0c9 0 19-9 19-19 0-10-6-19-19-19z m0 93l-157 0c-10 0-19 9-19 19 0 9 9 19 19 19l157 0c9 0 19-10 19-19 0-10-6-19-19-19z m0 99l-157 0c-10 0-19 6-19 19 0 13 9 16 19 16l157 0c9 0 19-10 19-19 0-10-6-16-19-16z"/>
<glyph glyph-name="okticon-083-user-edit" unicode="&#57446;" d="M259 70l3 10 106 106c-32 16-70 38-74 41-3 3-6 3-6 3 0 0 0 0 0 4-6 6-10 19-10 19 0 0 0 0 0 3l0 16c0 3 4 3 4 3 3 10 3 26 6 29 3 3 6 6 13 22 6 20 9 45 3 45 0 0-3 0-6-3 0 6 3 22 3 35 0 16 0 55-10 67-3 13-13 20-22 29-7 3-10 7-16 10-7 3-16 3-29 3-16 0-35-3-45-3-16-3-29-16-35-32-10-13-13-58-10-71 0-6 4-19 7-25 0-3 0-3 0-7 0 0 0 0-3 0-7 0 0-25 3-44 6-20 9-20 13-23 3-3 3-19 6-25 0 0 3-4 3-4l0-12 3-7c0 0 0 3-3 3 0-16-3-22-3-28 0 0 0 0-3 0-3 0-3-4-7-7-3-6-108-61-108-61-16-6-29-6-29-28l-13-74 259 0z"/>
<glyph glyph-name="okticon-084-profile-edit" unicode="&#57447;" d="M288 102l48 48-288 0c-6 0-16 7-16 16 0 10 6 16 16 16l317 0 35 36-352 0c-6 0-16 6-16 16 0 9 6 16 16 16l352 0c6 0 16-7 16-16l26 22 6 6 0 186c0 19-16 32-32 32l-384 0c-16 0-32-13-32-32l0-320c0-16 16-32 32-32l250 0z m-48 324l160 0c6 0 16-7 16-16 0-10-6-16-16-16l-160 0c-6 0-16 6-16 16 0 9 10 16 16 16z m0-58l160 0c10 0 16-6 16-16 0-6-6-16-16-16l-160 0c-6 3-13 10-13 16 0 10 7 16 13 16z m0-61l160 0c6 0 16-6 16-16 0-9-6-16-16-16l-160 0c-6 0-16 7-16 16 0 10 10 16 16 16z m-202-3c0 6 4 6 10 10 0 0 35 19 35 19 0 0 0 3 3 3 0 3 0 3 4 6l0 7c0 3-4 6-4 9 0 0-3 4-3 7 0 6-3 16 0 16 0 0 0 0 0 3 0 3 0 6 0 10 0 6 0 19 3 22 4 3 7 10 13 10 3 0 10 0 13 0 3 0 6 0 10 0 0 0 3-4 6-4-3-3 0-6 3-9 3-3 3-16 3-23 0-3 0-9 0-9 4 0 0-10 0-16 0-7-3-7-3-7-3 0-3-6-3-9l0-7c0 0 0-3 3-6 0-3 35-19 35-19 7-3 10-3 10-10l6-25-147 0z"/>
<glyph glyph-name="okticon-085-expression" unicode="&#57448;" d="M64 32l32 0 0 448-32 0z m352 448l-32 0 0-224-64 96-64-96 0 224-128 0 0-448 288 0c16 0 32 16 32 32l0 384c0 16-16 32-32 32z"/>
<glyph glyph-name="okticon-086-devices" unicode="&#57449;" d="M454 387l-128 0c-12 0-25-13-25-25l0-333c0-13 13-26 25-26l128 0c13 0 26 13 26 26l0 333c0 12-13 25-26 25z m-64-19c4 0 4 0 4-3 0-3-4-3-4-3-3 0-3 0-3 3 0 3 0 3 3 3z m-16-16l29 0c0 0 3 0 3-3 0 0 0-3-3-3l-29 0c0 0-3 0 0 6-3-3 0 0 0 0z m16-339c-9 0-16 6-16 16 0 9 7 16 16 16 10 0 16-7 16-16 0-10-6-16-16-16z m64 48l-124 0 0 265 124 0z m-377-10l0 410 262 0 0-26 42 0 0 51c-3 16-13 26-29 26l-294 0c-13 0-26-10-26-26l0-460c0-13 13-26 26-26l195 0 0 51z m128 435c3 0 3 0 3-3 0-3 0-3-3-3-3 0-3 0-3 3 0 3 3 3 3 3z m0-473c-7 0-13 6-13 13 0 6 6 12 13 12 6 0 13-6 13-12 0-7-7-13-13-13z"/>
<glyph glyph-name="okticon-087-phone" unicode="&#57450;" d="M320 448l-128 0c-16 0-26-13-26-26l0-332c0-13 10-26 26-26l128 0c13 0 26 13 26 26l0 332c0 13-13 26-26 26z m-64-19c3 0 3 0 3-3 0-4-3-4-3-4-3 0-3 0-3 4 0 3 0 3 3 3z m-16-16l29 0c0 0 3 0 3-3 0 0 0-4-3-4l-29 0c0 0-3 0 0 7-3-3 0 0 0 0z m16-339c-10 0-16 6-16 16 0 9 6 16 16 16 10 0 16-7 16-16 0-10-6-16-16-16z m70 48l-140 0 0 265 140 0z"/>
<glyph glyph-name="okticon-088-tablet" unicode="&#57451;" d="M403 512l-294 0c-13 0-26-10-26-26l0-460c0-13 13-26 26-26l294 0c13 0 26 10 26 26l0 460c0 16-10 26-26 26z m-147-26c3 0 3 0 3-3 0-3 0-3-3-3-3 0-3 0-3 3 0 3 0 3 3 3z m0-473c-6 0-13 6-13 13 0 6 7 12 13 12 6 0 13-6 13-12 0-7-7-13-13-13z m141 38l-282 0 0 410 282 0z"/>
<glyph glyph-name="okticon-089-okta-icon" unicode="&#57452;" d="M326 458c-25 12-54 16-86 16-122 0-221-100-221-221 0-122 99-221 221-221 122 0 221 99 221 221 0 13 0 22-3 32 25 19 41 51 41 83 0 61-48 109-109 109-22 3-44-7-64-19z m68-180c-26 0-48 10-64 26-16 16-26 38-26 64 0 26 10 48 26 64 16 16 38 26 64 26 25 0 48-10 64-26 16-16 25-38 25-64 0-26-9-48-25-64-16-16-42-26-64-26z m-154 164c22 0 42-4 61-10-7-10-10-22-13-32-16 3-32 6-48 6-83 0-154-67-154-153 0-87 68-154 154-154 83 0 154 67 154 154 0 3 0 6 0 9 12 0 22 4 35 7 0-7 0-10 0-16 0-51-23-99-55-131-35-36-80-55-131-55-51 0-99 23-131 55-35 35-54 80-54 131 0 51 22 99 54 131 32 35 77 58 128 58z"/>
<glyph glyph-name="okticon-089-okta-icon2" unicode="&#57453;" d="M387 301l0 157c-38-7-70-39-70-80 0-42 29-74 70-77z m90 77c0 41-29 73-71 80l0-157c39 3 71 35 71 77z"/>
<glyph glyph-name="okticon-091-launch" unicode="&#57455;" d="M480 477c-3 0-3 0 0 0-6 3-13-3-22-7-13 0-68-3-119-19 0-3-3-3-6-3-51-19-96-48-135-86-3-4-6-10-12-13l-80-13-74-77 80-35 0-3c3-7 6-10 10-16-7-10-20-26-23-35l0-4 3-3c7-9 13-16 20-25 3-4 6-7 9-10 3-3 7-6 10-10 6-6 16-12 25-19l4-3 3 0c9 3 25 16 35 22 6-3 10-6 16-9l3 0 35-77 74 74 13 80c3 3 9 9 13 12 38 39 67 84 86 135 0 3 3 6 3 9 16 52 19 103 19 119 7 3 10 9 10 16z m-106-154c-12-13-38-13-51 0-13 13-13 39 0 51 13 13 39 13 51 0 16-16 16-38 0-51z"/>
<glyph glyph-name="okticon-092-cir-arrow" unicode="&#57456;" d="M480 253c0 125-99 224-224 224-125 0-224-99-224-224 0-125 99-224 224-224 125 0 224 102 224 224z m-256-29l-128 0 0 64 128 0 0 96 192-128-192-128z"/>
<glyph glyph-name="okticon-093-asterisk" unicode="&#57457;" d="M483 179l-141 74 141 77-38 60-147-76 0 163-77 0 0-163-151 76-35-60 141-77-141-74 39-64 147 77 0-163 77 0 0 163 147-77z"/>
<glyph glyph-name="okticon-094-agent-light" unicode="&#57458;" d="M480 256c0-124-100-224-224-224-124 0-224 100-224 224 0 124 100 224 224 224 124 0 224-100 224-224z"/>
<glyph glyph-name="okticon-094-agent-light2" unicode="&#57459;" d="M256 448c106 0 192-86 192-192 0-106-86-192-192-192-106 0-192 86-192 192 0 106 86 192 192 192m0 32c-125 0-224-99-224-224 0-125 99-224 224-224 125 0 224 99 224 224 0 125-99 224-224 224z"/>
<glyph glyph-name="okticon-095-teach" unicode="&#57460;" d="M256 192l-134 64-7-19c13-3 13-19 10-39 0 0 6-12 6-22 71-22 125-67 125-67 0 0 70 57 176 89l-22 64z m-163 96l3-3z m163 22c13 0 22 4 22 10 0 6-9 10-22 10-13 0-19-4-19-10 0-6 6-10 19-10z m-154-115c-3 0-3 0 0 0-6 3-9 3-12 3-4 0-7 0-7 0l-13-6c-12-22 4-54 4-70 0-7 6-10 12-10 0 10 0 22 0 29 4 9 4-10 7-29 3 0 6 0 9 3 4 3-3 23 7 42 6 13 6 25 3 32z m122 125c0 13 13 22 32 22 19 0 32-9 32-19 0-13-13-19-32-19-13 0-22 3-26 10-38 0-96-16-115-29l141-64 224 99-224 96-224-96 67-35c26 19 99 35 125 35z m-134-86c-4 0-10-7-10-10l-3-16c3 0 9 3 13 3 6 0 9 0 12-3 0 0 4 0 4 0l3 13c0 3-3 9-7 13l10 48-13 3z"/>
<glyph glyph-name="okticon-096-dropdown-arrow" unicode="&#57461;" d="M256 192l-96 128 192 0z"/>
<glyph glyph-name="okticon-097-configure" unicode="&#57462;" d="M416 304c-3 10-6 19-13 29 10 13 19 25 29 41 3 4 3 10 0 13-13 16-32 35-48 48-3 3-10 3-13 0l-41-32c-7 7-16 10-26 13l-6 51c0 7-4 10-10 10l-64 0c-6 0-10-3-10-10-6-16-9-35-9-51-10-3-19-6-26-13l-41 32c-4 3-7 3-7 3-9 0-48-41-54-51-3-6-3-6 0-13 9-12 19-25 32-41-10-10-13-16-16-26l-55-9c-3 0-6-7-6-10l0-64c0-6 3-10 10-10l51-9c3-10 6-19 13-29-10-13-20-26-29-42-3-3-3-9 0-12 13-16 32-36 48-48 3-4 9-4 13 0l41 32c10-4 16-7 26-10l6-54c0-7 7-10 13-10l64 0c6 0 10 3 10 10 3 16 6 35 9 54 10 3 19 6 26 10l41-32c4-4 7-4 7-4 9 0 48 45 54 55 3 3 3 6 0 13-9 12-19 28-32 41 3 7 7 16 13 26l54 6c7 0 10 7 10 10l0 64c0 3-3 9-10 9z m-160-144c-51 0-96 42-96 96 0 54 42 96 96 96 54 0 96-42 96-96 0-54-42-96-96-96z"/>
<glyph glyph-name="social-icons" unicode="&#57463;" d="M410 282l7 62-57 0 0 31c0 10 1 16 4 20 3 4 10 6 21 6l31 0 0 62-50 0c-29 0-49-7-62-20-13-14-19-34-19-61l0-38-37 0 0-62 37 0 0-182 75 0 0 182z m65 143l0-274c0-23-8-42-24-58-16-16-35-24-58-24l-274 0c-23 0-42 8-58 24-16 16-24 35-24 58l0 274c0 23 8 42 24 58 16 16 35 24 58 24l274 0c23 0 42-8 58-24 16-16 24-35 24-58z"/>
<glyph glyph-name="social-icons-2" unicode="&#57465;" d="M230 89c0-7-1-14-3-20l-108 0c-18 0-35 5-49 16-15 10-25 25-30 42 5 8 11 16 20 22 9 6 18 11 29 14 10 3 20 6 30 7 10 1 20 2 31 2 6 0 10 0 14-1 1 0 4-2 8-6 5-3 8-5 10-6 1-1 4-3 9-7 4-3 7-5 9-7 2-2 4-4 8-7 3-4 6-6 7-9 2-2 4-5 6-8 3-4 4-7 5-10 1-3 2-7 3-11 1-3 1-7 1-11z m-83 100c-45-1-82-9-110-24l0 124c19-23 45-34 78-34 6 0 12 0 20 1-4-11-6-20-6-24 0-13 6-27 18-43z m49 146c0-19-4-34-12-46-9-11-22-17-41-17-9 0-19 2-27 7-9 5-16 12-23 20-6 8-11 17-16 26-4 10-8 20-10 30-2 10-3 19-3 28 0 19 5 34 15 48 10 13 23 19 41 19 13 0 24-4 34-11 10-8 18-18 24-30 6-12 10-25 13-37 3-13 5-25 5-37z m279 26l0-210c0-23-8-42-24-58-16-16-35-24-58-24l-134 0c8 13 12 28 12 44 0 13-3 25-7 35-4 11-9 20-16 27-6 7-13 14-20 20-7 7-14 13-21 17-6 5-11 10-16 16-4 5-6 11-6 17 0 7 2 13 7 19 4 6 9 12 16 18 6 5 12 12 18 18 7 7 12 16 16 27 5 11 7 23 7 37 0 14-3 28-8 42-5 14-12 25-21 34-1 1-3 2-4 3-2 1-3 2-4 2-1 0-2 1-3 3-1 1-2 3-3 5l39 0 38 18-124 0c-27 0-50-4-70-11-21-7-38-20-52-38 0 24 7 44 23 61 15 16 35 24 59 24l274 0c23 0 42-8 58-24 16-16 24-35 24-58l0-27-73 0 0 73-36 0 0-73-73 0 0-37 73 0 0-73 36 0 0 73z"/>
<glyph glyph-name="social-icons-3" unicode="&#57466;" d="M441 333c-45 26-91 40-134 46l0 119-70-45 0-73c-217-17-340-240 0-302l70 45 0 208c28-4 58-14 90-28l-40-25 129 0 0 85z m-204 2l0-212c-211 27-162 198 0 212z"/>
<glyph glyph-name="social-icons-4" unicode="&#57467;" d="M481 427c-13-18-28-34-46-47 0-3 0-7 0-12 0-25-3-50-11-74-7-25-18-49-33-71-14-23-32-43-52-61-21-17-45-31-74-41-29-11-60-16-92-16-52 0-99 14-142 42 7-1 14-2 22-2 43 0 81 14 115 40-20 0-38 6-54 18-16 12-27 27-33 46 7-1 13-2 18-2 8 0 16 1 24 4-21 4-39 15-53 31-14 17-21 37-21 59l0 1c13-7 27-11 42-11-13 8-23 19-30 32-8 14-11 29-11 44 0 17 4 33 12 47 23-28 51-51 84-68 33-17 69-27 107-29-2 8-3 15-3 22 0 25 9 47 27 65 18 18 40 27 66 27 26 0 49-10 67-29 21 4 40 11 59 22-7-22-21-39-41-51 18 2 35 7 53 14z"/>
<glyph glyph-name="social-icons-5" unicode="&#57468;" d="M402 370c-10-5-22-8-34-10 13 8 22 19 26 33-12-7-25-12-38-14-12 12-26 19-44 19-16 0-30-6-42-18-12-12-18-26-18-42 0-6 1-10 2-14-25 1-48 8-69 19-22 11-40 25-55 44-6-10-9-20-9-30 0-22 9-39 26-50-9 0-18 2-28 7l0-1c0-14 5-27 14-38 10-11 21-18 35-20-5-2-10-3-14-3-3 0-6 1-11 1 4-12 11-21 21-29 10-8 22-12 35-12-23-17-47-26-75-26-5 0-10 0-14 1 28-18 59-27 92-27 21 0 41 3 60 10 18 7 34 16 48 27 13 12 25 25 34 39 10 15 17 31 22 47 4 16 7 32 7 48 0 3-1 6-1 8 12 8 22 19 30 31z m73 55l0-274c0-23-8-42-24-58-16-16-35-24-58-24l-274 0c-23 0-42 8-58 24-16 16-24 35-24 58l0 274c0 23 8 42 24 58 16 16 35 24 58 24l274 0c23 0 42-8 58-24 16-16 24-35 24-58z"/>
<glyph glyph-name="social-icons-6" unicode="&#57469;" d="M136 365l0-283-94 0 0 283z m6 88c0-14-4-26-14-35-10-9-23-14-39-14-16 0-29 5-38 14-10 9-14 21-14 35 0 14 4 26 14 35 10 9 23 14 39 14 16 0 28-5 38-14 9-9 14-21 14-35z m333-208l0-163-94 0 0 152c0 20-3 35-11 47-8 11-20 17-36 17-12 0-22-4-30-10-9-7-15-15-19-25-2-5-3-13-3-23l0-158-94 0c1 76 1 138 1 185 0 47 0 76 0 85l-1 13 94 0 0-41c4 6 7 12 11 16 4 5 10 10 17 15 6 5 15 10 24 13 10 3 21 4 33 4 33 0 59-11 79-32 20-22 29-54 29-95z"/>
<glyph glyph-name="social-icons-7" unicode="&#57470;" d="M104 140l66 0 0 198-66 0z m71 259c-1 10-4 19-11 25-6 6-15 10-26 10-11 0-20-4-27-10-7-6-11-15-11-25 0-9 4-17 10-24 7-7 16-10 27-10 11 0 20 3 27 10 7 7 11 15 11 24z m167-259l66 0 0 114c0 29-7 51-21 66-14 15-32 23-55 23-26 0-46-11-60-34l1 0 0 29-66 0c0-12 0-78 0-198l66 0 0 111c0 7 0 12 2 16 2 7 7 12 12 17 6 5 13 7 22 7 22 0 33-15 33-45z m133 285l0-274c0-23-8-42-24-58-16-16-35-24-58-24l-274 0c-23 0-42 8-58 24-16 16-24 35-24 58l0 274c0 23 8 42 24 58 16 16 35 24 58 24l274 0c23 0 42-8 58-24 16-16 24-35 24-58z"/>
<glyph glyph-name="social-icons-8" unicode="&#57471;" d="M269 125c0 4-1 8-2 12-1 4-1 7-2 10-1 3-3 7-5 10-3 4-5 6-6 9-2 2-5 5-8 8-3 4-6 6-8 8-2 1-5 4-9 7-4 3-7 5-9 6-1 2-5 4-9 7-5 3-8 5-9 6-3 0-8 1-14 1-11 0-21-1-31-2-9-2-20-4-30-8-11-3-20-7-28-13-8-5-15-12-20-21-5-9-8-19-8-31 0-13 4-24 10-34 7-11 16-19 27-24 11-6 22-11 34-13 12-3 24-5 37-5 11 0 22 1 32 4 10 2 19 6 28 11 9 5 16 12 22 21 5 9 8 19 8 31z m-35 247c0 11-1 23-4 36-4 13-8 25-14 37-6 12-14 22-24 30-10 8-21 12-34 12-18 0-31-7-41-20-10-13-15-29-15-47 0-9 1-18 4-28 2-10 5-20 10-30 4-10 10-19 16-27 6-8 13-14 22-19 9-5 18-7 28-7 18 0 32 5 40 17 8 11 12 27 12 46z m-37 135l125 0-39-22-38 0c13-9 24-21 31-36 7-16 11-32 11-48 0-15-2-27-6-38-5-11-10-20-16-26-7-7-13-13-19-19-7-5-12-11-16-17-5-6-7-13-7-20 0-5 2-9 5-14 3-5 7-9 12-14 5-4 11-9 17-14 6-4 12-10 18-15 6-6 12-13 17-19 5-7 9-15 12-25 3-9 5-19 5-30 0-30-13-57-40-81-29-25-69-37-120-37-11 0-23 1-34 3-12 2-23 5-35 9-12 5-22 10-31 17-9 7-16 15-22 25-6 11-9 22-9 35 0 12 4 25 11 39 6 12 15 22 27 31 12 9 26 16 42 21 15 4 30 8 44 10 14 2 28 3 43 4-12 16-18 30-18 42 0 3 0 5 0 7 1 2 1 4 2 6 0 1 1 3 2 6 1 2 1 4 2 6-8-1-14-2-20-2-29 0-53 10-73 28-20 19-31 43-31 71 0 26 9 50 28 71 18 21 40 35 66 41 18 4 36 5 54 5z m297-73l0-36-73 0 0-73-37 0 0 73-73 0 0 36 73 0 0 73 37 0 0-73z"/>
<glyph glyph-name="social-icons-1" unicode="&#57464;" d="M292 385l74 0-9-81-65 0 0-235-97 0 0 235-49 0 0 81 49 0 0 49c0 35 8 61 24 79 17 18 44 26 81 26l65 0 0-81-40 0c-8 0-14 0-18-2-5-1-8-3-10-6-2-4-3-7-4-10 0-3-1-8-1-14z"/>
<glyph glyph-name="okticon-098-profile-master" unicode="&#57472;" d="M448 0l-16 74c0 22-13 22-29 28 0 0-102 52-109 58-3 3-3 3-6 3 0 0 0 0 0 3-3 7-6 20-6 20 0 0 0 0 0 3l0 16c0 3 3 3 3 3 0 13 0 29 3 32 3 3 6 6 13 22 6 20 9 45 3 45 0 0-3 0-6-3 0 6 3 22 3 35 0 16 0 55-10 67-3 13-13 23-22 29-3 3-10 7-16 10-7 3-16 3-29 3-16 0-35 0-45-3-16-3-29-16-35-29-10-16-13-58-10-74 0-6 4-19 7-25 0-3 0-3 0-7 0 0 0 0-3 0-7 0 0-28 3-44 6-20 9-20 13-23 3-3 3-19 6-25 0 0 3-4 3-4l0-12 3-7c0 0 0 3-3 3 0-16-3-22-3-28 0 0 0 0-3 0-3 0-3-4-7-7-3-6-108-61-108-61-16-6-29-6-29-28l-13-74z m-96 480l160 0 0-42-160 0z m0-77l160 0 0-41-160 0z m0-77l160 0 0-41-160 0z"/>
<glyph glyph-name="okticon-099-auth-provider" unicode="&#57473;" d="M208 67l13 13 99 96c0 0 0 3 0 3 0 10 0 16 3 26-16 9-29 19-29 19-3 6-6 6-6 6 0 0 0 0 0 4-6 6-10 19-10 19 0 0 0 0 0 3l0 16c0 3 4 3 4 3 3 10 3 26 6 29 3 3 6 6 13 22 6 20 9 45 3 45 0 0-3 0-6-3 0 6 3 22 3 35 0 16 0 55-10 67-3 13-13 20-22 29-7 3-10 7-16 10-7 3-16 3-29 3-16 0-35-3-45-3-16-3-29-16-35-32-10-13-13-58-10-71 0-6 4-19 7-25 0-3 0-3 0-7 0 0 0 0-3 0-7 0 0-25 3-44 6-20 9-20 13-23 3-3 3-19 6-25 0 0 3-4 3-4l0-12 3-7c0 0 0 3-3 3 0-16-3-22-3-28 0 0 0 0-3 0-3 0-3-4-7-7-3-6-108-61-108-61-16-6-29-6-29-28l-13-74 208 0z"/>
<glyph glyph-name="okticon-100-time" unicode="&#57474;" d="M256 480c-125 0-224-99-224-224 0-125 99-224 224-224 125 0 224 99 224 224 0 125-99 224-224 224z m0-410c-102 0-186 84-186 186 0 102 84 186 186 186 102 0 186-84 186-186 3-102-80-186-186-186z m19 192l0 128c0 10-9 20-19 20-10 0-19-10-19-20l0-134c0-6 3-10 6-13l71-80c3-3 9-6 12-6 4 0 10 0 13 3 7 6 10 19 3 26z"/>
<glyph glyph-name="okticon-101-calender" unicode="&#57475;" d="M416 422l-26 0 0-41c0-26-19-45-44-45-26 0-45 19-45 45l0 41-87 0 0-41c0-26-19-45-44-45-26 0-45 19-45 45l0 41-26 0c-35 0-64-28-64-64l0-262c0-35 29-64 64-64l320 0c35 0 64 29 64 64l0 262c-3 36-32 64-67 64z m32-326c0-19-13-32-32-32l-320 0c-19 0-32 13-32 32l0 192 384 0z m-102 384c-7 0-13-6-13-13l0-83c0-6 6-13 13-13 6 0 12 7 12 13l0 83c4 7-3 13-12 13z m-176 0c-10 0-16-6-16-13l0-83c0-6 6-13 12-13 7 0 13 7 13 13l0 83c3 7-3 13-9 13z"/>
<glyph glyph-name="okticon-android" unicode="&#57477;" d="M435 358c-16 0-25-9-25-25l0-128c0-16 9-26 25-26 16 0 26 10 26 26l0 128c0 16-10 25-26 25z m-358 0c-16 0-26-9-26-25l0-128c0-16 10-26 26-26 16 0 25 10 25 26l0 128c0 16-9 25-25 25z m51 0l0-230c0-13 13-26 26-26l25 0 0-76c0-16 7-26 26-26 16 0 25 10 25 26l0 76 52 0 0-76c0-16 6-26 25-26 16 0 26 10 26 26l0 76 25 0c13 0 26 10 26 26l0 230z m192 109l26 39c0 3 0 6 0 6-4 0-7 0-7 0l-25-42c-20 7-39 13-58 13-19 0-38-3-58-9l-25 35c-3 3-7 3-7 3-3 0-3-3 0-6l26-39c-42-19-61-41-64-83l256 0c-3 42-22 64-64 83z m-125-57c-6 0-16 6-16 16 0 9 7 16 16 16 10 0 16-7 16-16 0-10-6-16-16-16z m122 0c-10 0-16 6-16 16 0 9 6 16 16 16 9 0 16-7 16-16 0-10-10-16-16-16z"/>
<glyph glyph-name="okticon-android-phone" unicode="&#57478;" d="M310 448l-105 0c-26 0-45-19-45-45l0-294c0-26 19-45 45-45l105 0c23 0 42 19 42 45l0 294c0 26-19 45-42 45z m4-16c3 0 6-3 6-6 0-4-3-7-6-7-4 0-7 3-7 7 0 3 3 6 7 6z m-16-3c0 0 3 0 0 0 3-3 3-7 0-7-4 0-4 4 0 7-4 0-4 0 0 0z m-10 0c3 0 3 0 0 0 3-3 3-7 0-7-3 0-3 4 0 7-3 0-3 0 0 0z m-48 3l38 0c0 0 4 0 4-3 0-3 0-3-4-3l-38 0c-3 3-3 3 0 6-3 0-3 0 0 0z m32-349l-32 0c-3 0-6 3-6 7 0 3 3 3 3 3l38 0c3 0 3-3 3-3 0-7-3-7-6-7z m64 29l-160 0 0 304 160 0z"/>
<glyph glyph-name="okticon-android-tablet" unicode="&#57479;" d="M387 512l-262 0c-16 0-29-16-29-32l0-451c0-16 13-29 29-29l262 0c16 0 29 13 29 29l0 451c0 16-13 32-29 32z m-57-13c3 0 3-3 3-3 0-3-3-3-3-3-4 0-4 3-4 3 0 0 0 3 4 3z m-23 0c3 0 3 0 0 0 3-3 0-3 0-3 0-3-3 0 0 3-3 0 0 0 0 0z m-6 0c3-3 0-3 0-3-3-3-3 0 0 3-3 0-3 0 0 0z m-61-3l48 0c3 0 3 0 3-3 0-3-3-3-3-3l-48 0c-3 0-3 0-3 3 0 3 0 3 3 3z m45-477l-58 0c-3 0-6 3-6 7 0 3 3 6 6 6l58 0c3 0 6-3 6-6 0-4-3-7-6-7z m99 29l-256 0 0 432 256 0z"/>
<glyph glyph-name="okticon-apple" unicode="&#57480;" d="M278 474c32 38 80 38 80 38 0 0 7-38-25-74-39-38-77-28-77-28 0 0-10 28 22 64z m-22-116c16 0 54 26 96 26 74 0 83-51 83-51 0 0-38-23-38-93 0-77 64-112 64-112 0 0-39-128-103-128-28 0-57 26-89 26-32 0-67-26-90-26-61 0-128 128-128 230 0 103 55 154 115 154 39 0 71-26 90-26z"/>
<glyph glyph-name="okticon-blackberry" unicode="&#57481;" d="M166 406c0 20-12 42-54 42-19 0-67 0-67 0l-19-106c0 0 35 0 70 0 54 0 70 39 70 64z m180 0c0 20-10 42-55 42-16 0-67 0-67 0l-19-106c0 0 35 0 70 0 55 0 71 39 71 64z m-205-147c0 19-7 58-51 58-20 0-64 0-64 0l-26-109c0 0 35 0 70 0 55 0 71 26 71 51z m179 10c0 19-6 45-51 45-19 0-64 0-64 0l-26-106c0 0 42 0 77 0 54 0 64 35 64 61z m192 48c0 19-6 51-51 51-19 0-77 0-77 0l-26-106c0 0 42 0 77 0 55 0 77 29 77 55z m-26-128c0 19-6 45-51 45-19 0-77 0-77 0l-25-106c0 0 48 0 83 0 54 0 70 35 70 61z m-192-55c0 20-9 52-54 52-16 0-58 0-64 0l-26-106c0 0 36 0 71 0 54-3 73 26 73 54z"/>
<glyph glyph-name="okticon-ipad" unicode="&#57483;" d="M432 26c0-13-10-26-26-26l-300 0c-13 0-26 10-26 26l0 460c0 13 13 26 26 26l300 0c13 0 26-10 26-26z m-336 438l0-416 320 0 0 416z m160-426c-6 0-13-6-13-12 0-7 7-13 13-13 6 0 13 6 13 13 0 6-7 12-13 12z m0 442c3 0 3 0 3 3 0 3 0 3-3 3-3 0-3 0-3-3 0 0 0-3 3-3z"/>
<glyph glyph-name="okticon-iphone" unicode="&#57484;" d="M326 448l-140 0c-13 0-26-13-26-26l0-332c0-16 13-26 26-26l140 0c13 0 26 13 26 26l0 332c0 13-10 26-26 26z m-70-19c3 0 3 0 3-3 0-4 0-4-3-4-3 0-3 0-3 4 0 3 0 3 3 3z m-16-19l29 0c0 0 3 0 3-4 0 0 0-3-3-3l-29 0c0 3 0 3 0 7z m16-333c-10 0-16 6-16 16 0 9 6 16 16 16 10 0 16-7 16-16 0-7-6-16-16-16z m80 51l-160 0 0 256 160 0z"/>
<glyph glyph-name="okticon-laptop" unicode="&#57485;" d="M256 64l230 0c26 0 26 32 26 32l-208 0 0-3c0-3-3-7-6-7l-84 0c-3 0-6 4-6 7l0 3-208 0c0 0 0-32 22-32l234 0m202 45l-404 0c-12 0-22 9-22 22l0 263c0 12 10 22 22 22l404 0c12 0 22-10 22-22l0-263c0-9-10-22-22-22z m0 35l0 237c0 6-7 13-13 13l-381 0c-6 0-13-7-13-13l0-240c0-7 7-13 13-13l384 0c6 3 10 10 10 16z"/>
<glyph glyph-name="okticon-osx" unicode="&#57486;" d="M256 480c-125 0-224-99-224-224 0-125 99-224 224-224 125 0 224 99 224 224 0 125-102 224-224 224z m112-368l-26 0-86 125-86-125-26 0 99 144-99 144 26 0 86-125 86 125 26 0-99-144z"/>
<glyph glyph-name="okticon-windows" unicode="&#57487;" d="M211 442l-179-26 0-160 179 0z m269-186l0 224-246-35 0-189z m-448-22l0-138 179-26 0 164z m202-167l246-35 0 202-246 0z"/>
<glyph glyph-name="okticon-devices" unicode="&#57482;" d="M282 139l-44 0 0-3c0-2-1-4-3-4l-64 0c-2 0-3 2-3 4l0 3-168 0c0 0 0-22 18-22l264 0z m219 154l-65 0c-7 0-11-5-11-11l0-155c0-7 6-10 11-10l65 0c7 0 11 5 11 10l0 154c0 7-5 12-11 12z m-33-9c0 0 2 0 0 0 2-2 2-3 0-3-2 0-2 1 0 3-2 0-2 0 0 0z m-7-9l14 0c0 0 2 0 2-1 0 0 0-2-2-2l-14 0c-2 2-2 2 0 3-2 0-2 0 0 0z m7-153c-4 0-7 3-7 7 0 3 3 7 7 7 3 0 7-4 7-7 0-4-4-7-7-7z m37 21l-74 0 0 120 74 0c0 0 0-120 0-120z m-470 237l0-212 247 0 0-18-252 0c-7 0-12 5-12 12l0 223c0 7 5 12 12 12l346 0c7 0 12-5 12-12l0-5z m413-18l-136 0c-7 0-12-5-14-12l0-223c0-7 6-12 13-12l95 0 0 23-99 0 0 201 145 0 0-30 7 0 0 41c0 7-5 12-11 12z m-68-230c3 0 7-3 7-7 0-3-4-7-7-7-4 0-7 4-7 7 0 4 3 7 7 7z m0 216c-2 0-2 2-2 2 0 0 2 1 2 1 0 0 1-1 1-1 0 0 0-2-1-2z"/>
<glyph glyph-name="okticon-105-action-pause" unicode="&#57489;" d="M448 192l64 0 0-192-64 0z m-96 0l64 0 0-192-64 0z"/>
<glyph glyph-name="okticon-106-action-play" unicode="&#57490;" d="M336 0l0 208 176-104z"/>
<glyph glyph-name="okticon-103-person-pause" unicode="&#57491;" d="M304 216c-7 5-12 8-13 9l0 1-1 0c0 0 0 1 0 1l0 0 0 0-1 1c-1 2-3 4-4 4-1 0-1 0-1 0l0 0 0 0 0 0-1 0 0 0 0 0c0-1-1-1-1-1-1 0 0 1-1 3-2 6-5 18-6 20 0 0 0 0 0 0-1 0-1-1-2-1 0 0 0 1 0 5l1 16c1 1 2 3 3 4 5 6 5 22 7 26 3 4 8 5 12 24 5 19 11 45 5 46l0 0c-2 0-3-1-5-3 1 7 3 23 4 34 0 15-2 54-9 68-5 9-15 18-24 25-6 4-12 8-16 10-6 3-18 4-30 4-17 0-34-2-43-4-17-4-29-17-36-31-8-14-11-57-11-72 1-7 4-18 5-25 1-4 1-4 2-7-1 1-1 1-2 1l0 0c-6-1 0-27 4-46 5-19 10-20 12-24 3-4 3-20 8-26 1-1 2-3 3-5l1-13 2-7c-1 1-1 2-2 2 0 0-1 0-1-1-2-7-4-15-6-22 0 1-1 1-1 1-1 0-1 1-2 1-2 0-4-2-5-6-4-6-108-61-108-61-15-7-29-7-29-29l-12-74 304 0z"/>
<glyph glyph-name="okticon-104-person-play" unicode="&#57493;" d="M288 230c-1 1-2 2-3 2-1 0-1 0-1 0l0 0 0 0 0 0-1 0 0 0 0 0c0-1-1-1-1-1-1 0 0 1-1 3-2 6-5 18-6 20 0 0 0 0 0 0-1 0-1-1-2-1 0 0 0 1 0 5l1 16c1 1 2 3 3 4 5 6 5 22 7 26 3 4 8 5 12 24 5 19 11 45 5 46l0 0c-2 0-3-1-5-3 1 7 3 23 4 34 0 15-2 54-9 68-5 9-15 18-24 25-6 4-12 8-16 10-6 3-18 4-30 4-17 0-34-2-43-4-17-4-29-17-36-31-8-14-11-57-11-72 1-7 4-18 5-25 1-4 1-4 2-7-1 1-1 1-2 1l0 0c-6-1 0-27 4-46 5-19 10-20 12-24 3-4 3-20 8-26 1-1 2-3 3-5l1-13 2-7c-1 1-1 2-2 2 0 0-1 0-1-1-2-7-4-15-6-22 0 1-1 1-1 1-1 0-1 1-2 1-2 0-4-2-5-6-4-6-108-61-108-61-15-7-29-7-29-29l-12-74 288 0z"/>
<glyph glyph-name="okticon-038-reset2" unicode="&#57397;" d="M470 419l-38-29c-42 55-106 90-182 90-100 0-186-64-218-157 0 0 54-13 54-13 26 68 90 112 164 112 57 0 105-28 137-70l-35-29 128-35z"/>
<glyph glyph-name="okticon-090-okta-logo" unicode="&#57454;" d="M65 299c-35 0-64-29-64-64 0-36 29-65 64-65 36 0 65 29 65 65 0 35-29 64-65 64z m0-96c-17 0-32 14-32 32 0 17 15 32 32 32 18 0 32-15 32-32 0-18-14-32-32-32z m113 10c0 5 6 8 10 4 16-16 42-44 42-44 1-1 1-1 3-2 0 0 1 0 2 0l29 0c6 0 7 6 5 9l-48 49-3 3c-5 6-4 9 2 15l38 43c2 3 1 8-5 8l-26 0c-1 0-2 0-2 0-2 0-3-1-3-1 0 0-21-23-34-37-4-4-10-1-10 4l0 73c0 3-3 5-5 5l-22 0c-3 0-5-3-5-5l0-161c0-4 3-5 5-5l22 0c3 0 5 3 5 5l0 37z m175-36l-3 21c0 3-3 5-5 5-2-1-4-1-5-1-18 0-31 14-32 31 0 0 0 1 0 1l0 26c0 4 2 7 6 7l28 0c2 0 5 1 5 5l0 20c0 4-2 6-4 6l-29 0c-4 0-6 3-6 6l0 33c0 2-2 5-6 5l-21 0c-3 0-6-2-6-5 0 0 0-104 0-105 1-34 30-62 65-62 3 0 5 0 8 1 3 0 5 3 5 6z m154 27c-18 0-21 6-21 30 0 1 0 1 0 1l0 58c0 2-1 5-5 5l-22 0c-2 0-5-2-5-5l0-3c-10 6-20 9-32 9-35 0-64-29-64-64 0-36 29-65 64-65 16 0 31 6 42 16 6-9 15-15 31-16 2 0 16 0 16 6l0 23c0 2-2 5-4 5z m-85-1c-18 0-32 14-32 32 0 17 14 32 32 32 18 0 32-15 32-32 0-18-14-32-32-32z"/>
<glyph glyph-name="okticon-107-paper-plane" unicode="&#57492;" d="M417 436l-338-174-34-17 31-23 72-51 29-125 50 67 80-57 26-19 10 31 107 339 17 54z m-245-263l255 241-224-283-14-27z"/>
<glyph glyph-name="okticon-108-hourglass" unicode="&#57488;" d="M68 408c0 55 17 83 21 88l11 16 307 0 10-15c4-6 22-34 22-89 0-58-51-114-92-151 48-43 92-100 92-153 0-54-18-82-21-88l-11-16-308 0-11 17c-3 5-20 34-20 87 0 58 52 115 92 151-48 42-92 100-92 153m36-304c0-45 15-67 15-67l269 0c0 0 14 22 14 67 0 45-52 109-114 152 60 45 114 104 114 152 0 47-14 67-14 67l-269 0c0 0-15-20-15-67 0-46 53-109 114-153-59-44-114-105-114-151z m250-33l-202 0c0 0-8 0-8 35 0 43 109 122 109 122 0 0 110-80 110-122 0-35-9-35-9-35z"/>
<glyph glyph-name="okticon-109-question" unicode="&#57494;" d="M267 39c-23 0-47 21-47 45 0 23 24 46 47 46 23 0 46-23 46-46 0-24-23-45-46-45z m62 228c-23-13-39-29-39-47 0-17 23-28 23-28l-69-23c0 0-29 18-29 57 0 41 29 62 57 80 18 10 34 28 34 46 0 21-16 34-45 34-51 0-80-46-80-46l-46 56c0 0 57 63 132 63 74 0 124-39 124-96 0-52-34-75-62-96z"/>
<glyph glyph-name="okticon-112-arrow-alt" unicode="&#57497;" d="M0 287l0-62 352 0 0-97 160 128-160 128 0-97z"/>
<glyph glyph-name="okticon-102-tombstone" unicode="&#57476;" d="M256 480c-192 0-192-224-192-224l0-256 384 0 0 256c0 16 0 224-192 224z m-128-192l256 0 0-32-256 0z m32-64l192 0 0-32-192 0z"/>
<glyph glyph-name="okticon-114-wifi" unicode="&#57499;" d="M291 99c0 18-14 32-32 32-17 0-32-14-32-32 0-17 15-32 32-32 18 0 32 15 32 32z m-144 80c61 55 154 55 215 0 6-6 12-3 16 0l32 32c3 3 3 13 0 16-90 83-228 83-314 0-3-3-3-9 0-13l35-35c3-3 10-3 16 0z m-93 119c96 92 285 115 400 0 10-10 23-7 29 0l23 22c6 6 6 19 0 29-144 134-362 131-503-3-3-7-3-16 0-20l26-25c6-10 16-13 25-3z"/>
<glyph glyph-name="okticon-115-add-wifi" unicode="&#57500;" d="M118 256c52 45 125 45 176 0 7-6 13-3 13 0l26 29c3 3 3 9 0 13-74 67-186 67-256-4-3-3-3-6 0-9l29-29c3-3 9-6 12 0z m-73 96c80 77 230 96 326 0 10-10 19-6 23 0l19 19c6 7 6 16 0 23-115 115-295 112-410 0-3-4-3-13 0-16l19-23c7-6 16-9 23-3z m189-166c0 14-12 25-26 25-14 0-26-11-26-25 0-15 12-26 26-26 14 0 26 11 26 26z"/>
<glyph glyph-name="okticon-116-ellipses" unicode="&#57503;" d="M141 256c0-38-32-70-70-70-38 0-70 32-70 70 0 38 32 70 70 70 38 0 70-32 70-70z m185 0c0-38-32-70-70-70-38 0-70 32-70 70 0 38 32 70 70 70 38 0 70-32 70-70z m185 0c0-38-32-70-70-70-38 0-70 32-70 70 0 38 32 70 70 70 38 0 70-32 70-70z"/>
<glyph glyph-name="okticon-117-server-and-laptop" unicode="&#57501;" d="M340 158l-292 0-24-43 337 0z m-184-34l9 17 55 0 7-17z m179 43l0 178c0 4-5 7-7 7l-268 0c-5 0-7-3-7-7l0-175z m-22 15l-241 0 0 151 241 0z m53-77l-347 0 0-2c0-5 5-12 7-12l333 0c5 0 9 7 7 14z m7 89c-7 0-14 0-21 0l0-31 14-31c2 0 2 0 5 0 67 0 122 19 122 40l0 48c-7-5-17-9-31-14-22-7-55-12-89-12z m0 220c-67 0-122-19-122-41l0-5 94 0c4 0 9-4 9-9l0-70c7 0 14 0 22 0 64 0 119 17 122 41l0 43c-3 24-58 41-125 41z m0-141c-7 0-14 0-21 0l0-62c7 0 14 0 21 0 65 0 117 16 122 38l0 52c-7-4-16-9-31-14-24-9-57-14-91-14z"/>
<glyph glyph-name="okticon-118-server-1" unicode="&#57504;" d="M256 150c-45 0-90 7-122 16-16 7-28 13-38 20l0-64c0-16 22-32 58-42 28-6 64-13 102-13 90 0 163 26 163 55l0 64c-9-7-22-13-38-20-35-9-80-16-125-16z m163 77l0 67c-9-6-22-12-38-19-35-13-80-19-125-19-45 0-90 6-122 16-19 6-32 13-41 22l0-67c6-29 77-51 163-51 86 0 157 22 163 51z m-326 106c6-29 77-55 163-55 86 0 157 23 163 52l0 60c0 32-73 55-163 55-90 0-163-26-163-55z"/>
<glyph glyph-name="okticon-119-trust" unicode="&#57505;" d="M448 422c0 4-3 7-6 7-48 0-135 6-183 51 0 0 0 0-6 0-48-45-138-51-183-51-3 0-6-3-6-7 0-192-6-326 189-390 3 0 3 0 6 0 195 64 189 198 189 390z m-224-262l-96 96 32 32 64-64 128 128 32-32z"/>
<glyph glyph-name="okticon-121-link" unicode="&#57506;" d="M256 480c-125 0-224-99-224-224 0-125 99-224 224-224 125 0 224 99 224 224 0 125-99 224-224 224z m13-323l-23-23c-16-12-32-22-51-22-19 0-38 6-51 22l-3 4c-16 16-23 32-23 51 4 16 10 35 23 48l51 54c13 13 32 23 51 23 13 0 29-4 42-13 3 0 3-3 6-3l3-4 4-6-32-32 0 3c-7 3-13 7-20 7-9 0-16-4-22-7l-51-51c-7-6-7-13-7-19 0-7 4-13 7-19l3-4c6-6 13-9 19-9 7 0 16 3 19 9l23 23c9 9 22 9 32 0 9-10 9-26 0-32z m102 118l-51-54c-16-13-32-23-51-23-19 0-39 7-51 23l-4 3 32 32 4-3c6-7 12-7 19-7 6 0 13 4 19 7l51 51c7 6 7 13 10 19 0 7-3 13-10 19l-3 4c-6 6-13 9-19 9-7 0-13-3-19-9l-23-20c-9-9-22-9-32 0-9 10-9 23 0 32l23 23c12 13 32 22 51 22 19 0 38-6 51-22l3-3c13-13 23-32 23-52-4-19-10-38-23-51z"/>
<glyph glyph-name="logo-box" unicode="&#57507;" d="M168 325l0 152c0 19-16 35-36 35-20 0-36-16-36-35l0-300 0 0c2-98 82-177 180-177 100 0 181 81 181 180 0 100-81 181-181 181-40 0-77-14-108-36z m0-146c0 60 49 108 108 108 60 0 108-48 108-108 0-60-48-108-108-108-59 0-108 48-108 108z"/>
<glyph glyph-name="logo-ldap" unicode="&#57508;" d="M336 203c-10-16-16-34-16-54 0-53 43-96 96-96 53 0 96 43 96 96 0 53-43 96-96 96-2 0-4 0-6 0l-60 96-5 8c5 11 7 23 7 35 0 53-43 96-96 96l0-192c9 0 17 1 25 3z m-160 0c10-16 16-34 16-54 0-53-43-96-96-96-53 0-96 43-96 96 0 53 43 96 96 96 2 0 4 0 6 0l60 96 5 8c-5 11-7 23-7 35 0 53 43 96 96 96l0-192c-9 0-17 1-25 3z"/>
<glyph glyph-name="logo-google" unicode="&#57509;" d="M365 353c-14 14-30 25-46 33-17 8-37 11-61 11-19 0-36-3-53-10-17-7-32-16-44-28-13-13-23-28-31-45-7-17-11-37-11-58 0-21 4-41 11-58 8-18 18-32 31-45 13-12 27-22 44-28 17-7 36-10 55-10 21 0 38 2 54 8 15 6 28 14 39 24 7 6 14 15 20 25 6 10 10 21 14 33l-130 0 0 73 211 0c1-4 2-10 3-18 1-7 2-14 2-21 0-29-5-55-13-79-9-24-22-45-39-64-19-20-42-36-69-47-27-12-58-17-93-17-31 0-60 5-88 17-28 11-52 26-72 46-21 20-37 44-49 71-12 27-18 57-18 90 0 32 6 62 18 90 12 27 28 51 49 71 20 20 44 35 72 46 28 11 57 17 88 17 36 0 67-6 94-18 28-12 51-29 71-51z"/>
<glyph glyph-name="logo-office-365" unicode="&#57514;" d="M306 512l-274-100 0-297 90 34 0 244 184 42 0-363-274 40 272-112 144 50 0 421z"/>
<glyph glyph-name="logo-ulti-pro-1" unicode="&#57512;" d="M257 491c23 0 42-15 42-32 0-18-19-32-42-32-24 0-42 14-42 32 0 17 18 32 42 32z m-65-107c0 0 0 21 21 21l86 0c21 0 21-21 21-21l0-149-31 0 0-128-66 0 0 128-31 0z"/>
<glyph glyph-name="logo-ulti-pro-2" unicode="&#57513;" d="M448 171c0-83-98-171-192-171-94 0-192 88-192 171l0 256 64 0 0-256c0 0 21-107 128-107 107 0 128 107 128 107l0 256 64 0z"/>
<glyph glyph-name="logo-workday-1" unicode="&#57511;" d="M467 378c-35 83-118 134-211 134-95 0-176-51-211-134-4-8-2-15 1-21 6-7 14-11 23-11 13 0 23 6 27 16 26 62 88 99 160 99 72 0 133-39 160-99 5-10 14-16 26-16 9 0 20 4 23 11 5 5 5 13 2 21z"/>
<glyph glyph-name="logo-workday-2" unicode="&#57510;" d="M397 10c-2-7-7-10-16-10l-51 0c-9 0-12 2-14 10l-49 177c-5 19-7 39-10 60-2-21-6-43-11-60l-49-177c-2-7-7-10-16-10l-52 0c-9 0-12 2-14 10l-72 254c-2 8 4 13 11 13l33 0c9 0 14-3 16-12l45-180c5-20 7-42 9-61 3 19 7 41 12 61l51 182c2 7 9 10 17 10l41 0c8 0 15-3 17-12l51-182c5-20 9-40 10-61 4 19 6 41 11 61l42 182c2 7 9 11 17 11l32 0c7 0 14-5 10-14z"/>
<glyph glyph-name="logo-netsuite-1" unicode="&#57515;" d="M192 21l299 0 0 107-192 0-107 128z m-171 448l0-106 192 0 107-150 0 256z"/>
<glyph glyph-name="logo-netsuite-2" unicode="&#57516;" d="M171 43l-128 0 0 298 85 0 0-213 43 0z m170 405l128 0 0-299-85 0 0 214-43 0z"/>
<glyph glyph-name="okticon-067-help" unicode="&#57428;" d="M256 480c-125 0-224-99-224-224 0-125 99-224 224-224 125 0 224 99 224 224 0 125-99 224-224 224z m0-342c-13 0-26 12-26 25 0 13 13 26 26 26 13 0 26-13 26-26 0-13-13-25-26-25z m35 128c-13-7-22-16-22-26 0-10 13-16 13-16l-39-13c0 0-16 10-16 32 0 23 16 35 32 45 10 6 19 16 19 26 0 12-9 19-25 19-29 0-45-26-45-26l-26 32c0 0 32 35 74 35 42 0 70-22 70-54 0-29-19-42-35-54z"/>
<glyph glyph-name="okticon-053-app-unassign" unicode="&#57413;" d="M90 390l-58 0c-32 0-32 0-32 32l0 29c0 29 0 29 32 29l61 0c29 0 29 0 29-29l0-29c0-32 0-32-32-32z m297 0l-57 0c-29 0-29 0-29 29l0 32c-3 29-3 29 29 29l57 0c29 0 29 0 29-29l0-29c0-32 0-32-29-32z m-147 0l-61 0c-29 0-29 0-29 29l0 32c0 29 0 29 29 29l58 0c29 0 29 0 29-29l0-29c3-32 3-32-26-32z m-150-265l-58 0c-29 0-29 0-29 29l0 28c-3 32-3 32 29 32l61 0c29 0 29 0 29-28l0-29c0-32 0-32-32-32z m128 25l0 48 51 0c0 13-7 13-29 13l-61 0c-29 0-29 0-29-29l0-28c0-29 0-29 29-29l35 0 0 25z m-128 109l-58 0c-32 0-32 0-32 29l0 29c0 29 0 29 32 29l61 0c29 0 29 0 29-29l0-29c0-29 0-29-32-29z m297 0l-57 0c-29 0-29 0-29 29l0 29c0 29 0 29 29 29l57 0c29 0 29 0 29-29l0-29c0-29 0-29-29-29z m-147 0l-61 0c-29 0-29 0-29 29l0 29c0 29 0 29 29 29l58 0c29 0 29 0 29-29l0-29c3-29 3-29-26-29z m176-61c0 13-6 13-29 13l-57 0c-23 0-29 0-29-13z"/>
<glyph glyph-name="okticon-082-megaphone" unicode="&#57445;" d="M128 160l0-96c0-16 16-32 32-32l32 0c16 0 32 16 32 32l0 96z m339 317c-9 3-19 3-25-3 0 0-4-4-4-4-3-3-6-6-12-12-13-10-29-23-52-36-38-25-89-35-150-38l-128 0c-32 0-64-35-64-96 0-61 32-96 64-96l128 0c32 0 115-22 147-45 23-13 39-25 51-35 7-3 10-10 13-13 0 0 3-3 3-3 7-6 16-10 26-6 10 3 16 12 16 22l0 342c0 10-3 20-13 23z"/>
<glyph glyph-name="okticon-000-actionremove" unicode="&#57353;" d="M512 170l-35 35-67-67-68 67-35-35 67-68-67-67 35-35 68 70 67-70 35 35-67 67z"/>
<glyph glyph-name="aura" unicode="&#57502;" d="M381 256c0-67-58-125-125-125-67 0-125 58-125 125 0 67 58 125 125 125 67 0 125-58 125-125m-371 0c0-138 108-246 246-246 138 0 246 108 246 246 0 138-108 246-246 246-138 0-246-108-246-246"/>
<glyph glyph-name="userclockfront" unicode="&#57517;" d="M291 419c0 0 16 0 23 0 9 0 44-9 41-80l-3-25 3 0c0 0 3 0 3-4 0-3-3-25-6-32 0-6 0-12-6-16 0 0 0-6-4-16 0-3-3-6-3-6l0-16c-25-13-54-51-51-90 3-38 13-51 13-51l-167 0c0 0 10 48 10 58 3 13 10 13 13 13 3 0 9 3 9 3l84 48c3 3 3 3 3 3l3 0 3 35c0 0-3 3-3 7-10 9-10 16-10 16-6 0-6 9-9 12-3 7-7 26-7 32 0 4 4 4 4 4l3 0 0 6c-3 6-7 19-7 19-6 61 23 74 36 77 3 0 25 3 25 3m112-291l0 38c0 7-3 10-9 10-7 0-10-3-10-10 0 0 0-38 0-41 0-3 0-3 3-7l23-25c0 0 3-3 6-3 6 0 10 3 10 9 0 0 0 3-4 7z m-9 86c-45 0-84-38-84-83 0-45 39-83 84-83 44 0 83 38 83 83 0 45-35 83-83 83z m0-140c-32 0-58 25-58 57 0 32 26 58 58 58 32 0 57-26 57-58 0-32-25-57-57-57z"/>
<glyph glyph-name="userclockback" unicode="&#57518;" d="M115 144c3 19 13 29 29 32 3 0 6 0 10 3l73 42 0 16c0 3-3 6-3 6 0 3 0 7 0 7-6 9-6 16-10 19-3 13-6 35-6 41 0 4 0 10 3 13-3 7-3 10-3 13-10 70 26 93 45 99-13 26-29 29-35 29-7 0-23 0-23 0 0 0-22 0-25-3-13 0-42-13-36-74 0 0 0-13 7-19l0-6-3 0c0 0-4 0-4-4 0-3 4-25 7-32 0-6 3-12 9-12 0 0 0-7 4-16 0-4 3-7 3-7l-3-38-4 0c0 0 0 0-3-3l-83-45c0 0-3 0-10-3-6-4-9 0-12-13-4-13-10-58-10-58l80 0c3 7 3 10 3 13z"/>
<glyph glyph-name="csv" unicode="&#57519;" d="M144 378l227 0 0-42-227 0z m0-164l227 0 0-19-227 0z m0-60l227 0 0-20-227 0z m0 118l227 0 0-19-227 0z m-80 208l0-448 387 0 0 448z m346-406l-304 0 0 364 304 0z"/>
<glyph glyph-name="file-cert" unicode="&#57496;" d="M160 224l0-11 192 0 0 11z m32-96l0-11 128 0 0 11z m-32 64l0-11 192 0 0 11z m0-32l0-11 192 0 0 11z m96 232c-22 0-41-18-41-40 0-10 4-19 9-26l-19-50 25 11 13-24 14 38 15-38 12 24 25-11-19 50c5 6 10 17 10 27-3 21-22 39-44 39z m0-9c17 0 31-14 31-31 0-17-14-31-31-31-17 0-31 14-31 31 0 17 14 31 31 31z m160 65l-320 0c0-128 0-255 0-383l320 0m-299 20l0 341 278 0 0-341z"/>
<glyph glyph-name="encrypted-icon" unicode="&#57498;" d="M256 381c-26 0-45-19-45-45l0-45 90 0 0 45c0 26-19 45-45 45z m0 131c-141 0-256-115-256-256 0-141 115-256 256-256 141 0 256 115 256 256 0 141-115 256-256 256z m112-378c0-6 0-22-22-22l-180 0c-6 0-22 0-22 22l0 135c0 6 0 22 22 22l0 45c0 51 39 90 90 90 51 0 90-39 90-90l0-45c22 0 22-16 22-22z"/>
<glyph glyph-name="csv-1" unicode="&#57520;" d="M144 378l227 0 0-42-227 0z m0-167l227 0 0-19-227 0z m0-57l227 0 0-20-227 0z m0 118l227 0 0-19-227 0z m-80 208l0-448 387 0 0 448z m346-406l-304 0 0 364 304 0z"/>
<glyph glyph-name="okticon-046-refresh" unicode="&#57406;" d="M470 410l-32-26c-38 58-105 96-182 96-125 0-224-99-224-224 0-125 99-224 224-224 93 0 173 54 205 134l-45 23c-26-61-86-106-160-106-96 0-173 77-173 173 0 96 77 173 173 173 61 0 112-29 144-77l-35-26 115-38z"/>
<glyph glyph-name="okticon-browser" unicode="&#57521;" d="M413 448l-317 0c-35 0-64-29-64-64l0-256c0-35 29-64 64-64l320 0c35 0 64 29 64 64l0 256c-3 35-32 64-67 64z m35-96l0-96-256 0 0 96z m-272 64c10 0 16-6 16-16 0-10-6-16-16-16-10 0-16 6-16 16 0 10 6 16 16 16z m-48 0c10 0 16-6 16-16 0-10-6-16-16-16-10 0-16 6-16 16 0 10 6 16 16 16z m-48 0c10 0 16-6 16-16 0-10-6-16-16-16-10 0-16 6-16 16 0 10 6 16 16 16z m13-320c-19 0-32 13-32 32l0 224 99 0 0-256z m323 0l-224 0 0 128 256 0 0-96c0-19-13-32-32-32z"/>
<glyph glyph-name="okticon-server-2" unicode="&#57522;" d="M368 304l-224 0c-112 0-112 0-112-32l0-32c0-32 0-32 112-32l224 0c112 0 112 0 112 32l0 32c0 32 0 32-112 32z m-208-54c0-10 0-10-26-10l-48 0c-22 0-22 0-22 10l0 12c0 10 0 10 26 10l48 0c22 0 22 0 22-10z m208-90l-224 0c-112 0-112 0-112-32l0-32c0-32 0-32 112-32l224 0c112 0 112 0 112 32l0 32c0 32 0 32-112 32z m-208-54c0-10 0-10-26-10l-48 0c-22 0-22 0-22 10l0 9c0 13 0 13 22 13l48 0c26 0 26 0 26-10z m-16 246l224 0c112 0 112 0 112 32l0 32c0 32 0 32-112 32l-224 0c-112 0-112 0-112-32l0-32c0-32 0-32 112-32z m-80 54c0 10 0 10 22 10l48 0c26 0 26 0 26-10l0-9c0-13 0-13-26-13l-48 0c-22 0-22 0-22 10z"/>
<glyph glyph-name="okticon-web" unicode="&#57523;" d="M170 176l70 0 0 64-80 0c0-22 3-45 10-64z m9-32c16-38 35-67 61-77l0 77z m167 32c3 19 6 42 6 64l-80 0 0-64z m-10-32l-64 0 0-77c26 7 48 35 64 77z m-253 32l55 0c-7 19-10 42-10 64l-64 0c3-22 10-45 19-64z m16-32c19-26 45-48 74-61-13 16-23 39-29 61z m333 32c10 19 13 42 16 64l-64 0c0-22-3-45-6-64z m-19-32l-48 0c-7-26-19-45-32-64 35 16 61 38 80 64z m-243 192c-7-19-10-42-10-64l80 0 0 64z m9 32l61 0 0 77c-26-10-48-35-61-77z m163-32l-70 0 0-64 80 0c0 22-3 45-10 64z m-9 32c-13 42-35 67-61 77l0-77z m-250-32c-9-19-16-42-19-64l64 0c0 22 3 45 6 64z m16 32l45 0c6 22 19 45 29 61-29-13-55-35-74-61z m330-32l-55 0c4-19 7-42 7-64l64 0c0 22-7 45-16 64z m-16 32c-19 26-45 48-74 61 13-16 23-39 29-61z m35-109l0-13c0 4 0 7 0 13 0-3 0-3 0 0z m-192 221c125 0 224-99 224-224 0-125-99-224-224-224-125 0-224 99-224 224 0 125 99 224 224 224z"/>
<glyph glyph-name="okticon-059-factory-reset" unicode="&#57420;" d="M256 480c-112 0-202-83-218-192l-38 0 64-96 64 96-38 0c16 80 83 141 166 141 96 0 173-77 173-173 0-96-77-173-173-173-48 0-90 19-122 51l-35-35c39-41 96-67 157-67 125 0 224 99 224 224 0 125-99 224-224 224z"/>
<glyph glyph-name="okticon-wipe-device" unicode="&#57524;" d="M256 474l-128 0 0 38-96-61 96-67 0 38 128 0c93 0 166-76 166-166 0-93-76-166-166-166-93 0-166 76-166 166l-52 0c0-118 96-218 218-218 118 0 218 96 218 218 0 118-100 218-218 218z m-67-320l67 70 67-70 35 35-67 67 67 67-35 35-67-67-67 67-35-35 67-67-67-67z"/>
<glyph glyph-name="110-person-override" unicode="&#57495;" d="M278 253c0 0 0 0 0 0 0 0 0 0 0 3l0 16c0 3 4 3 4 3 3 10 3 26 6 29 3 3 6 6 13 22 6 20 9 45 3 45 0 0-3 0-6-3 0 6 3 22 3 35 0 16 0 55-10 67-3 13-13 20-22 29-3 3-10 7-16 10-7 3-16 3-29 3-16 0-35-3-45-3-16-3-29-16-35-32-10-13-13-58-10-71 0-6 4-19 7-25l0-7c0 0 0 0-3 0-7 0 0-25 3-44 6-20 9-20 13-23 3-3 3-19 6-25l3-4 0-12 3-7c0 0 0 3-3 3 0-16-3-22-3-32 0 0 0 0-3 0-3 0-3-3-7-6-3-6-108-61-108-61-16-3-29-3-29-25l-13-74 235 0-7 14-19 35 35 17 12 5-13 7-35 19 20 35 19 32 19 31z"/>
<glyph glyph-name="code-python" unicode="&#57525;" d="M0 0l512 0 0 512-512 0z m117 326c16 14 32 14 34 14l23 0 0 35c0 4 0 14 9 24 14 15 40 23 80 23 38 0 64-8 78-23 9-11 10-22 10-25 0-7 0-17 0-28l26 0c2 0 48-5 48-92 0-32-7-56-23-71-16-15-33-15-34-15l-24 0 0-35c0-3 0-13-9-23-13-15-40-23-79-23-38 0-64 7-78 23-10 11-10 22-10 25 0 7 0 9-1 12 0 4 0 6 0 15l-25 0c-2 0-49 5-49 91 0 35 9 59 24 73z m76-177c0-2 0-6 0-13l0-2c0 0 0-3 5-7 5-5 20-14 59-14 42 0 57 10 60 14 2 2 2 5 2 5l0 36-75 0 0 25 125 0c1 0 10 0 17 8 10 10 15 28 15 53 0 49-17 65-26 67l-23 0c0-5 0-9 0-13 0-9 0-15 0-18 0-6 0-19-13-32-13-13-32-13-36-13l-81 0c0 0-9 0-19-9-10-8-10-19-10-19l0-54c0-9 0-10 0-14z m91-5c0 1 0 2 1 3 0 1 1 1 1 2 1 1 1 2 2 2 5 5 13 4 17 0 1-1 1-1 2-2 0-1 1-1 1-2 0-1 1-2 1-3 0-1 0-1 0-2 0-4-2-7-4-9-1-1-2-2-4-3-2-1-3-1-5-1-3 0-7 2-9 4-3 2-3 5-3 9 0 1 0 1 0 2z m-140 44l24 0 0 29c0 8 3 26 19 39 17 14 33 14 35 14l82 0c3 0 11 0 16 5 6 6 6 10 6 15 0 4 0 9 0 18 0 21 0 51-1 66l0 1c0 0 0 4-4 8-5 5-20 14-59 14-52 0-63-14-64-20l0-2 0 1 0-35 76 0 0-25-123 0c-1 0-9 0-17-7-10-10-15-29-15-54-1-49 16-65 25-67z m92 171c-3-3-6-4-9-4-2 0-4 0-5 1-2 1-3 2-4 3-1 0-3 2-3 4-1 1-1 3-1 5 0 3 2 6 4 9 5 4 13 5 17 0 3-3 3-6 3-9 1-4 0-7-2-9z"/>
<glyph glyph-name="code-javascript" unicode="&#57527;" d="M0 0l512 0 0 512-512 0z m360 185c-25 11-56 23-53 62 2 27 22 47 48 48 28 2 54-16 60-41l-24-6c-4 16-20 23-33 22-7-1-23-4-25-27-2-17 10-24 37-35 28-12 66-28 56-77-5-23-22-38-49-40-3 0-6-1-9-1-28 0-60 13-71 36l22 10c5-12 30-23 55-20 10 1 25 6 27 21 6 27-11 36-41 48z m-209-36l12 0c0-5 3-31 38-31 18 0 31 14 31 35l0 132 25 0 0-132c0-35-24-60-56-60-49 0-63 36-63 56z"/>
<glyph glyph-name="code-java" unicode="&#57528;" d="M0 512l0-512 512 0 0 512m-242-99c1 10-1 18-1 22l25 4c0-1 6-33-4-58-5-12-18-22-32-33-15-11-30-23-35-37-6-18 22-43 33-51l-14-21c-6 4-57 40-43 80 8 20 27 35 44 48 11 8 21 17 24 22 2 9 2 16 3 24m-22-333c-8 0-16 0-24 0-70 0-100 8-106 28-1 7 0 14 4 20 10 14 36 18 44 18l1-13 1-12c-10-1-21-4-25-8 4-3 23-11 104-9 73 2 103 18 103 24l25 0c2-40-88-47-127-48z m126 161c7-6 10-14 10-23 0-28-45-49-59-55l-10 24c24 10 44 26 44 31 0 3 0 5-1 5-5 5-19 5-24 5l-2 25c2 0 28 2 42-12z m-170-86c7-6 50-3 90 5l5-24c-19-4-45-8-69-8-22 0-42 4-47 16-5 9-3 16 1 22-8 2-14 6-17 11-4 5-4 11-3 16 1 3 3 5 4 7-10 2-19 4-24 9-5 5-7 12-6 19 4 26 50 30 63 30l1-25c-15 0-31-4-38-7 13-4 50-3 95 3l-10 14c5 3 15 14 15 24 0 2-2 4-7 8-8 7-20 19-15 42 6 25 25 36 60 55l12 7 12-22-12-7c-33-18-44-26-47-39-3-8 1-12 7-17 6-5 14-13 15-25 0-16-8-30-15-38 15 2 30 5 45 7l5-24c-30-6-86-15-128-15-6 0-11 0-16 1l8-7c9-7 62-4 116 7l5-24c-30-6-65-12-92-12-8 0-14 1-20 1z"/>
<glyph glyph-name="code-dotnet" unicode="&#57529;" d="M0 512l0-512 512 0 0 512z m88-328c-6 0-12 6-12 13 0 6 6 12 12 12 7 0 13-6 13-12 0-7-6-13-13-13z m146 140l0-141-28 0-2 4-61 90 0-94-30 0 0 148 28 0 2-2 61-91 0 93 30 0z m90-19l-45 0 0-34 45 0 0-25-45 0 0-38 45 0 0-25-70 0 0 147 70 0z m109 0l-34 0 0-122-25 0 0 122-33 0 0 25 92 0z"/>
<glyph glyph-name="code-background" unicode="&#57530;" d="M4 4l504 0 0 504-504 0z"/>
<glyph glyph-name="logo-bamboo-hr" unicode="&#57531;" d="M0 256c0-141 115-256 256-256 141 0 256 115 256 256 0 141-115 256-256 256-141 0-256-115-256-256z m156 20c-13 5-25 19-37 33-12 15-39 38-39 38 0 0 8 0 17-2 7-2 25-8 44-18 5-2 7-3 11-6 6-4 13-10 19-16 8-8 14-14 20-21-6 12-22 52-53 85-3 3 22-12 28-18 19-20 21-31 27-50l11-37c0 0-11 2-20 4-10 1-15 3-28 8z m61-66l0 161 25 0 0-98 3 3c11 11 27 21 56 21 43 0 81-38 81-82 0-48-36-85-84-85-43 0-81 31-81 80z m81-57c-31 0-58 25-58 59 0 33 23 61 59 61 36 0 57-30 57-61 0-33-22-59-58-59z"/>
<glyph glyph-name="code-android" unicode="&#57532;" d="M0 512l0-512 512 0 0 512z m401-288c0-17-14-31-31-31-7 0-13 2-18 5l0-16c0-15-12-28-27-28l-5 0 0-29c0-18-14-32-31-32-17 0-31 14-31 32l0 29-4 0 0-29c0-18-14-32-31-32-17 0-31 14-31 32l0 29-5 0c-15 0-27 13-27 28l0 16c-5-3-11-5-17-5-18 0-32 14-32 31l0 76c0 17 14 32 32 32 6 0 12-2 17-6 0 0 0 0 0 0 0 2 1 3 1 5 4 21 18 40 37 52l-8 12c-4 7-3 16 4 21 7 5 16 3 21-4l11-16c19 6 41 6 60 0l11 16c2 3 6 6 10 6 4 1 8 0 11-2 7-5 8-14 4-21l-8-12c19-12 33-31 37-52 0-2 1-3 1-5 0 0 0 0 1 0 4 4 10 6 17 6 17 0 31-15 31-32l0-76z m-216 82l142 0 0-124c0-2-1-3-2-3l-30 0 0-54c0-4-2-7-6-7-3 0-6 3-6 7l0 54-54 0 0-54c0-4-3-7-6-7-4 0-6 3-6 7l0 54-30 0c-1 0-2 1-2 3z m-42 0c-4 0-7-2-7-6l0-76c0-3 3-6 7-6 3 0 6 3 6 6l0 76c0 4-3 6-6 6z m227 0c-4 0-7-2-7-6l0-76c0-3 3-6 7-6 3 0 6 3 6 6l0 76c0 4-3 6-6 6z m-79 62l-5 2c-19 7-41 7-60 0l-5-2c-16-8-28-20-33-35l136 0c-5 15-17 27-33 35z"/>
<glyph glyph-name="code-angular" unicode="&#57533;" d="M0 512l0-512 512 0 0 512z m411-166l-21-170-1-12-12-7-109-60-12-7-12 7-109 60-12 6-1 13-21 169-2 20 19 6 129 46 8 3 9-3 130-45 19-6z m-179-89l24 56 27-56-26 0-2 0z m-106 91l21-169 109-60 109 60 21 170-130 44z m184-156l-17 41-38 0 0 0-34 0-16-40-30-1 80 178 84-178z"/>
<glyph glyph-name="code-node" unicode="&#57535;" d="M0 512l0-512 512 0 0 512z m402-325c0-9-4-17-12-23l-1 0-120-70c-4-2-9-3-13-3-5 0-9 1-13 3l-119 69c-9 5-14 14-14 24l0 138c0 9 4 17 12 23l1 0 120 70c8 3 18 3 26 0l119-69c9-5 14-14 14-24z m-25 139c0 0 0 0 0-1l0-138c0 0 0-1-2-2l-117-68c-1-1-3-1-3-1l-120 70c0 0 0 0 0 1l0 138c0 0 0 1 2 2l117 68c1 1 3 1 3 1z"/>
<glyph glyph-name="code-react" unicode="&#57536;" d="M0 512l0-512 512 0 0 512z m370-318c-1-1-2-1-4-1 1-2 1-4 2-6 8-44 1-79-20-91-5-3-12-5-19-5-18 0-41 11-65 32-3 2-5 4-7 6-2-2-4-3-5-4-34-30-68-41-89-29-20 12-27 44-19 87 1 3 2 6 2 9-2 1-4 1-6 2-42 14-69 38-69 62 0 23 25 46 66 60 3 1 6 2 9 3 0 3-1 6-1 9-9 43-2 76 18 88 21 12 55 1 90-31 1-1 2-2 3-2 2 1 4 3 6 5 34 29 66 40 86 28 21-12 28-47 19-93-1-1-1-3-1-4 2-1 5-2 8-3l0 0c42-14 67-36 67-60 0-24-27-47-71-62z m-33 16c-6-2-13-3-20-4 2 4 4 7 6 11l0 0c3 4 5 8 7 12 2-7 5-13 7-19z m-14 85c-2 4-4 7-6 11 7-1 13-3 19-4-2-6-4-12-6-18-2 4-5 7-7 11z m-97-92c19-1 41-1 61 0 5 9 11 17 16 26 5 9 10 18 14 27-4 9-9 18-14 27-5 9-11 18-16 26-20 1-41 1-62 0-5-8-11-17-16-26-5-9-10-18-14-27 4-9 9-18 14-27 5-9 11-18 17-26z m30 86c18 0 32-15 32-33 0-18-14-32-32-32-18 0-32 14-32 32 0 18 14 33 32 33z m44 43c-9 12-18 23-27 34 2 1 3 3 5 4 27 23 49 31 58 26 10-6 15-31 7-68 0-1 0-2 0-3-14 3-28 5-43 7z m-111-37c-2-4-4-7-6-11-3 6-5 12-7 18 6 1 12 3 19 4-2-4-4-8-6-11z m-13-86c2 6 4 13 7 19 2-4 4-7 6-11 2-4 4-8 6-11-6 1-13 2-19 3z m168-27c4-17 5-33 2-46-2-10-5-17-10-19-8-6-31 1-57 24-2 1-4 3-6 5 9 10 18 22 27 34 15 2 30 4 43 7 1-2 1-3 1-5z m73 74c0-11-19-28-55-40-1 0-1 0-2 0-4 13-10 26-16 40 6 14 11 27 15 40 3-1 5-1 7-2 33-12 51-28 51-38z m-173-78c8 0 17 0 25 0-4-5-8-10-12-15-5 5-9 10-13 15z m-31 2c8-12 18-24 27-34-1-1-2-2-4-3-13-12-27-21-39-25-9-3-17-4-22-1-8 5-14 27-7 61 0 3 1 6 1 8 14-3 28-5 44-6z m-45 152c-7 35-2 58 7 63 9 6 34-2 62-27 1-1 2-2 3-2-10-11-19-22-28-34-15-2-29-4-42-7-1 2-2 5-2 7z m88 2c-4 0-8 0-12 0 4 5 8 10 12 15 4-5 9-10 13-15-5 0-9 0-13 0z m-87-78c-7-14-12-28-16-41-2 0-4 1-5 1-17 6-31 14-41 22-8 7-12 13-12 18 0 10 17 26 50 38 2 1 5 2 8 2 4-13 9-26 16-40z"/>
<glyph glyph-name="brokenarrow" unicode="&#57537;" d="M330 230l0-73 150 99-150 99 0-73-61 0-26-52z m-173 52l-125 0 0-52 96 0z m118 89l-32 16-57-105-29-52-39-73 23-13 19-10 54 96 26 52 45 83z"/>
<glyph glyph-name="okticon-copy-to-clipboard" unicode="&#57538;" d="M195 416l93 0c0 0 22 0 22 26 0 25-22 22-22 22 0 0 0 48-48 48-48 0-45-48-45-48 0 0-22 0-22-22-3-23 22-26 22-26z m45 74c13 0 22-10 22-23 0-13-9-25-22-25-13 0-22 9-22 22 0 13 9 26 22 26z m192-202l0 128c0 16-16 32-32 32l-64 0 0-38c0-13-10-23-22-23l-148 0c-12 0-22 10-22 23l0 38-64 0c-16 0-32-16-32-32l0-384c0-16 16-32 32-32l320 0c16 0 32 16 32 32l0 64-42 0 0-54-300 0 0 364 12 0c4-35 29-60 64-60l144 0c36 0 64 28 64 60l13 0 0-118z m-96 0l-128-96 128-96 0 64 128 0 0 64-128 0z m-144-118l-64 0 0 48 64 0z m32 80l-96 0 0 44 96 0z m0-160l-96 0 0 48 96 0z"/>
<glyph glyph-name="okticon-visibility-off" unicode="&#57539;" d="M438 163l-86 87c0 3 0 3 0 6 0 54-42 96-96 96-3 0-3 0-6 0l-58 58c22 3 42 6 64 6 166 0 256-141 256-160 0-10-26-54-74-93z m-118-61c-22-3-42-6-64-6-166 0-256 134-256 157 0 13 26 57 74 96l86-87c0-3 0-3 0-6 0-54 42-96 96-96 3 0 3 0 6 0z m-218 346l346-346-38-38-346 346z"/>
<glyph glyph-name="code-ios" unicode="&#57534;" d="M222 304c-25 0-41-20-41-51 0-31 15-51 41-51 24 0 40 20 40 51 0 31-16 51-40 51z m-222 208l0-512 512 0 0 512z m129-329l-24 0 0 106 24 0z m-12 123c-8 0-14 6-14 13 0 8 6 14 14 14 9 0 15-6 15-14 0-7-6-13-15-13z m105-126c-41 0-67 28-67 73 0 45 26 73 67 73 40 0 66-28 66-73 0-45-26-73-66-73z m140 0c-32 0-53 16-55 41l25 0c1-13 14-21 31-21 17 0 29 9 29 21 0 10-8 16-26 20l-18 4c-25 6-37 18-37 39 0 25 21 42 52 42 29 0 50-17 52-41l-24 0c-2 13-13 20-28 20-16 0-27-7-27-19 0-10 7-15 24-19l17-4c28-6 40-18 40-39 0-28-21-44-55-44z"/>
<glyph glyph-name="code-php" unicode="&#57526;" d="M385 283l-20 0-10-54 17 0c11 0 20 2 26 6 5 4 9 12 11 22 2 10 1 16-3 20-3 4-10 6-21 6z m-243 0l-20 0-10-54 17 0c11 0 20 2 26 6 5 4 9 12 11 22 2 10 1 16-3 20-3 4-10 6-21 6z m-142 229l0-512 512 0 0 512z m195-257c-1-7-3-12-6-18-3-5-7-10-12-14-5-6-12-9-18-12-7-2-16-3-27-3l-24 0-7-35-29 0 26 131 54 0c17 0 29-4 37-13 7-9 9-21 6-36z m119 14l-12-61-29 0 11 58c2 6 1 11-1 13-2 3-7 4-14 4l-23 0-14-75-29 0 26 131 28 0-7-35 25 0c16 0 27-3 33-8 6-6 8-15 6-27z m124-14c-1-7-3-12-6-18-3-5-7-10-11-14-6-6-12-9-19-12-7-2-16-3-27-3l-24 0-7-35-29 0 26 131 55 0c16 0 28-4 36-13 7-9 9-21 6-36z"/>
<glyph glyph-name="code-rest" unicode="&#57543;" d="M256 309c-29 0-51-23-51-52 0-28 23-52 51-52 29 0 51 23 51 52 0 29-22 52-51 52z m94-23c-2 6-3 10-7 15l-5 8 6 7c5 8 11 15 17 24-7 8-16 17-25 24l-32-25-8 7c-2 3-6 4-12 6l-8 2-4 38-33 0c-3-8-4-19-4-28l0-9-9-3c-6-2-10-3-12-6l-8-7-33 25c-7-5-19-18-24-24 7-8 13-16 19-24l7-8-8-8c-5-5-6-8-7-12l-3-8-37-6 0-34 38-6 2-8c1-6 3-10 7-15l5-8-6-7c-6-8-11-15-16-24 6-8 15-17 23-24l30 23 7-3c2-1 3-1 5-2 4-2 7-3 11-4l8-2 4-40 34 0c2 9 4 21 6 32l1 8 7 2c7 2 11 4 15 6l7 4 31-25c7 7 19 20 24 27-1 1-2 2-3 4-5 6-10 13-15 19l-6 6 3 7c3 6 5 12 10 19l3 6 37 4 0 32-40 7z m-94-106c-42 0-76 35-76 77 0 43 33 77 76 77 43 0 76-34 76-77 0-43-33-77-76-77z m-256 332l0-512 512 0 0 512z m417-278c0-9-7-19-18-19l-29-4c-1-1-1-2-2-3 5-5 8-11 12-16 2-2 3-4 5-6l1-3c2-4 6-13-2-22-6-8-31-41-45-41-2 0-7 1-13 6l-21 16c-1 0-3-1-4-1-2-10-3-20-5-28 0-11-8-18-19-18l-42 0c-12 0-21 8-21 18l-3 28c-2 0-3 1-4 2l-21-17c-4-4-9-5-14-5-4 0-8 2-11 5-12 9-25 23-33 33-6 7-6 17-1 24 5 8 10 15 15 21-2 3-3 6-4 8l-25 5c-11 0-18 8-18 19l0 42c0 7 4 18 15 19l29 5c1 2 2 4 3 7-5 6-10 12-15 19l-1 3c-3 7-4 11 0 19l1 1c0 0 30 40 46 40 2 0 7 0 12-5l20-15c2 1 4 1 5 2 1 9 3 19 6 28 1 9 8 16 19 16l42 0c11 0 19-7 19-18l3-26c2-1 4-1 6-2l19 15c7 6 19 6 25 0 11-9 24-22 33-33 6-7 6-17 1-24-5-8-10-15-15-21 2-3 3-6 4-8l27-5c11-1 18-10 18-19l0-42z"/>
<glyph glyph-name="code-swift" unicode="&#57544;" d="M368 202c0 3 0 5 1 6 0 1 0 1 0 2 10 39-4 86-34 123 8-22 12-46 5-71-1-3-2-5-2-8-1-1-1-2-1-3 0 0-11 1-24 9-11 7-37 25-99 66 8-15 18-31 27-43l28-35-42 16c-4 2-9 3-14 5-8 2-16 5-26 9 24-31 46-56 66-72 10-10 15-20 15-20-33-21-66-24-106-11 13-11 28-19 43-26 21-9 42-13 63-13 20 0 39 4 55 12 5 4 21 13 40 13 10 0 19-3 27-8-2 12-8 27-20 42-1 2-2 5-2 7z m-368 310l0-512 512 0 0 512z m414-394c-2-5-7-8-12-8-6 0-10 3-12 8-6 12-15 18-27 18-11 0-21-5-27-9-1 0-1 0-1 0-20-11-43-16-67-16-24 0-48 5-72 15-41 18-76 48-99 85-3 5-2 12 2 16 4 4 11 4 16 0 10-8 20-14 32-19 22-11 42-16 59-16 8 0 15 1 22 3-37 34-71 82-90 111l-35 52 51-34c19-12 34-19 46-24-16 27-29 55-29 57l-18 39 36-24c42-28 102-68 130-86 1 27-11 57-40 96-3 5-3 11 1 16 4 4 11 5 16 2 73-44 114-125 97-195 27-36 27-74 21-87z"/>
<glyph glyph-name="ico-openinnewtab" unicode="&#57545;" d="M96 448c-35 0-64-29-64-64l0-256c0-35 29-64 64-64l320 0c35 0 64 29 64 64l0 96-48 0 0-96c0-10-6-16-16-16l-320 0c-10 0-16 6-16 16l0 256c0 10 6 16 16 16l160 0 0 48z m384-160l0 160-160 0 64-64-128-128 32-32 128 128z"/>
<glyph glyph-name="shape-1" unicode="&#57562;" d="M22 469c0-217 0-326 0-326 0 0 60 0 178 0l67-100 64 100 181 0 0 326z m296-225l-204 0 0 20 204 0z m102 90l-306 0 0 20 306 0z m-402 178l0 0 0 0z m0-11l0 0 0 0z m-9-4l0 0 0 0z m-8 4c0 0 0 0 0 0l0 0c0 0 0 0 0 0z m0 11c0 0 0 0 0 0l0 0 0 0z m0 0l17 0 0-11-6 0 0 0-3-4-2 4 0 0c-5 0-5 0-6 0 0 0 0 0 0 2 0 4 0 4 0 9z m10-8l-7 0 0 0 0 1 0 0 7 0 0 0 0-1z m4 3l-11 0 0 0 0 1 0 0 11 0 0 0 0-1z"/>
</font>
</defs>
</svg>
